BitTorrentTracker PerecTracker.org
BitTorrentTracker PerecTracker.org
    
Регистрация  ·  Вход
 
 · 
Забыли пароль?

  • Танцующий в пустыне / Desert Dancer (Ричард Рэймонд / Richard Raymond) [2015, Великобритания, Россия, Драма, биография, HDRip] DVO + Original Eng

    Ответить на тему
     
    Автор Сообщение

    rechyn

    Создавать темы 01-Мар-2016 03:00

           

    [Цитировать]

    Танцующий в пустыне / Desert Dancer-
    Год выпуска: 2015
    Страна: Великобритания, Россия
    Жанр: Драма, биография
    Продолжительность: 01:44:08
    Перевод: Любительский (двухголосый закадровый) (Parovoz Production)
    Cубтитры: нет
    Оригинальная аудиодорожка: английский
    Режиссер:
    Ричард Рэймонд | Richard Raymond-В ролях: Назанин Бониади, Фрида Пинто, Том Каллен, Рис Ричи, Саймон Кассианидес, Марама Корлетт, Акин Гази, Макрам Хури, Морад Зауи, Давуд Хадами-Описание: В Иране, где запрещено танцевать, Афшин и его друзья, несмотря на подстерегающие их опасности, основали подпольную танцевальную студию. Группа танцоров получила доступ к YouTube для того, чтобы научиться танцевать по видео роликам с участием Майкла Джексона, Пины Бауш и Рудольфа Нуриева. Упиваясь свободой самовыражения, полученной при помощи танца, они задумали организовать представление в пустыне, вдали от бдительных глаз безжалостной иранской организации «Басидж». Однако этот акт мужества и неповиновения повлек за собой ряд событий, из-за которых жизнь Афшина оказалась в опасности.| | | Сэмпл |
    Качество: HDRip
    Формат: AVI
    Видео: XviD, 720x304, 2,35:1, 23.976 fps, 1600 Кбит/с
    Аудио #1: AC3 Dolby Digital, 48 kHz, 2ch, 192 kbps (Русский)
    Аудио #2: AC3 Dolby Digital, 48 kHz, 2ch, 192 kbps (English)

    MediaInfo

    ОбщееПолное имя : D:\FILMS\Танцующий в Пустыне\2eSer3.Dan7er.2015.L2.HDRip.aviФормат : AVIФормат/Информация : Audio Video InterleaveРазмер файла : 1,46 ГбайтПродолжительность : 1 ч. 44 м.Общий поток : 2006 Кбит/секПрограмма кодирования : VirtualDubMod 1.5.10.2 (build 2542/release)Библиотека кодирования : VirtualDubMod build 2542/release
    ВидеоИдентификатор : 0Формат : MPEG-4 VisualПрофиль формата : Advanced Simple@L5Параметр BVOP формата : 2Параметр QPel формата : НетПараметр GMC формата : Без точки переходаПараметр матрицы формата : ВыборочнаяИдентификатор кодека : XVIDИдентификатор кодека/Подсказка : XviDПродолжительность : 1 ч. 44 м.Битрейт : 1607 Кбит/секШирина : 720 пикселейВысота : 304 пикселяСоотношение сторон : 2,35:1Частота кадров : 23,976 кадра/секЦветовое пространство : YUVСубдискретизация насыщенности : 4:2:0Битовая глубина : 8 битТип развёртки : ПрогрессивнаяМетод сжатия : С потерямиБит/(Пиксели*Кадры) : 0.306Размер потока : 1,17 Гбайт (80%)Библиотека кодирования : XviD 65
    Аудио #1Идентификатор : 1Формат : AC-3Формат/Информация : Audio Coding 3Расширение режима : CM (complete main)Параметр Endianness формата : BigИдентификатор кодека : 2000Продолжительность : 1 ч. 44 м.Вид битрейта : ПостоянныйБитрейт : 192 Кбит/секКаналы : 2 каналаРасположение каналов : Front: L RЧастота : 48,0 КГцБитовая глубина : 16 битМетод сжатия : С потерямиРазмер потока : 143 Мбайт (10%)Выравнивание : Разделение по промежуткамПродолжительность промежутка : 42 мс. (1,00 видеокадр)Время предзагрузки промежутка : 500 мс.
    Аудио #2Идентификатор : 2Формат : AC-3Формат/Информация : Audio Coding 3Расширение режима : CM (complete main)Параметр Endianness формата : BigИдентификатор кодека : 2000Продолжительность : 1 ч. 44 м.Вид битрейта : ПостоянныйБитрейт : 192 Кбит/секКаналы : 2 каналаРасположение каналов : Front: L RЧастота : 48,0 КГцБитовая глубина : 16 битМетод сжатия : С потерямиРазмер потока : 143 Мбайт (10%)Выравнивание : Разделение по промежуткамПродолжительность промежутка : 42 мс. (1,00 видеокадр)Время предзагрузки промежутка : 500 мс.

    Скриншоты


    Скачать .torrent

    Скачать торрент-файл бесплатно и на максимальной скорости!

    Как скачивать? · Что такое торрент? · Рейтинг и ограничения

    !ВНИМАНИЕ!
    Сайт не распространяет и не хранит электронные версии произведений, а занимается лишь лишь предоставлением доступа к создаваемому пользователями каталогу ссылок на торрент-файлы, которые содержат только списки хеш-сумм, убедительная просьба с жалобами обращаться напрямую к пользователю. Файлы для обмена на трекере предоставлены пользователями сайта, и администрация не несёт ответственности за их содержание. Просьба не заливать файлы, защищенные авторскими правами, а также файлы нелегального содержания!


    _________________
    [Профиль] [ЛС]
    Показать сообщения:    
    Ответить на тему

    Текущее время: Сегодня, в 00:37

    Часовой пояс: GMT + 2



    Вы не можете начинать темы
    Вы не можете отвечать на сообщения
    Вы не можете редактировать свои сообщения
    Вы не можете удалять свои сообщения
    Вы не можете голосовать в опросах
    Вы не можете прикреплять файлы к сообщениям
    Вы не можете скачивать файлы