Register  ·  Log in
Forgot password?

  • Мёд в голове / Honig im Kopf (Тиль Швайгер / Til Schweiger) [2014, Германия, Драма, комедия, приключения, BDRip] MVO (FocusStudio)

    Reply to topic
    Author Message


    Post 01-Mar-2016 04:00



    Мёд в голове / Honig im Kopf-Год выхода: 2014
    Выпущено: Германия / Warner Bros. GmbH
    Жанр: драма, комедия, приключения
    Продолжительность: 02:19:04
    Перевод: Профессиональный (многоголосый закадровый) FocusStudio
    Субтитры: нет-Режиссер:
    Тиль Швайгер / Til Schweiger-В ролях:
    Эмма Швайгер (Tilda Rosenbach), Дитер Халлерворден (Dr. Amandus Rosenbach), Тиль Швайгер (Niko Rosenbach), Паскуале Алеарди (Carabiniere Straßensperre), Marco Boriero (Ray-Ban Carabiniere), Alexa Brunner (Frau am Bahnsteig 2), Белинда Буш (Freundin Sarah), Клаудио Кайоло (Rezeptionist), Дэна Цебулла (Dame im Zug)-О фильме:
    История 11-летней Тильды, которая просто обожает своего дедушку Амандуса. Когда тому диагностируют болезнь Альцгеймера, а родители, по ее мнению, хотят избавиться от него, сдав в дом престарелых, она берет ситуацию в свои руки и сбегает вместе с дедом в сказочную Венецию. Город выбран неслучайно. Ведь почти полвека назад Амандус сделал там предложение руки и сердца бабушке Тильды. Теперь внучка надеется, что оказавшись там, деду станет лучше, и он хоть что-нибудь вспомнит.-Релиз групп
    | | IMDB | КиноПоиск | Сэмпл |-Качество: BDRip [BDRemux]
    Формат: AVI
    Видео: 720x304 (2.37:1), 23.976 fps, XviD build 67 ~1313 kbps avg, 0.25 bit/pixel
    Аудио: 48 kHz, AC3 Dolby Digital, 2/0 (L,R) ch, ~192 kbps avg-




    Complete name                            : D:\Med_v_golove_2014_BDRip_by_Dalemake.avi
    Format                                   : AVI
    Format/Info                              : Audio Video Interleave
    File size                                : 1.47 GiB
    Duration                                 : 2h 19mn
    Overall bit rate                         : 1 515 Kbps
    Writing application                      : VirtualDubMod | || (build 2550/release)
    Writing library                          : VirtualDubMod build 2550/release
    ID                                       : 0
    Format                                   : MPEG-4 Visual
    Format profile                           : Advanced Simple@L5
    Format settings, BVOP                    : 1
    Format settings, QPel                    : No
    Format settings, GMC                     : No warppoints
    Format settings, Matrix                  : Custom
    Codec ID                                 : XVID
    Codec ID/Hint                            : XviD
    Duration                                 : 2h 19mn
    Bit rate                                 : 1 313 Kbps
    Width                                    : 720 pixels
    Height                                   : 304 pixels
    Display aspect ratio                     : 2.35:1
    Frame rate                               : 23.976 (23976/1000) fps
    Color space                              : YUV
    Chroma subsampling                       : 4:2:0
    Bit depth                                : 8 bits
    Scan type                                : Progressive
    Compression mode                         : Lossy
    Bits/(Pixel*Frame)                       : 0.250
    Stream size                              : 1.28 GiB (87%)
    Writing library                          : XviD 67
    ID                                       : 1
    Format                                   : AC-3
    Format/Info                              : Audio Coding 3
    Mode extension                           : CM (complete main)
    Format settings, Endianness              : Big
    Codec ID                                 : 2000
    Duration                                 : 2h 19mn
    Bit rate mode                            : Constant
    Bit rate                                 : 192 Kbps
    Channel(s)                               : 2 channels
    Channel positions                        : Front: L R
    Sampling rate                            : 48.0 KHz
    Frame rate                               : 31.250 fps (1536 spf)
    Compression mode                         : Lossy
    Stream size                              : 191 MiB (13%)
    Alignment                                : Split accross interleaves
    Interleave, duration                     : 42 ms (1.00 video frame)
    Interleave, preload duration             : 500 ms
    Download .torrent

    Download free and at maximum speed!

    How to Download? · What is a torrent? · Ratings and Limitations

    The site does not extend and does not store electronic(digital) versions of products, and only gives access to a reference catalogue created by users on torrent-files which contain only lists of the hash-sums, the earnest entreaty, with complaints(abuse) to access directly to the user. Files for an exchange on tracker are given by users of a site, and the administration does not bear the responsibility for their maintenance. The request to not fill in the files protected by copyrights, and also files of the illegal maintenance!

    [Profile] [PM]
    Display posts from previous:    
    Reply to topic

    The time now is: Today 01:25

    All times are GMT + 3 Hours

    You cannot post new topics in this forum
    You cannot reply to topics in this forum
    You cannot edit your posts in this forum
    You cannot delete your posts in this forum
    You cannot vote in polls in this forum
    You cannot attach files in this forum
    You cannot download files in this forum