BitTorrentTracker PerecTracker.org
BitTorrentTracker PerecTracker.org
    
Регистрация  ·  Вход
 
 · 
Забыли пароль?

  • Строго на запад / Slow West (Джон Маклин / John Maclean) [2015 г., Великобритания, Новая Зеландия, вестерн, драма, триллер, BDRip] Dub (BD RUS) + Original Eng + Sub (Rus, Eng)

    Ответить на тему
     
    Автор Сообщение

    rechyn

    Создавать темы 01-Мар-2016 03:00

           

    [Цитировать]

    -Строго на запад / Slow West«Wanted dead or dead»Страна: Великобритания, Новая Зеландия
    Студия: DMC Film, Film4, New Zealand Film Commission, See-Saw Films
    Жанр: вестерн, драма, триллер
    Год выпуска: 2015
    Продолжительность: 01:24:00-Перевод: Профессиональный (полное дублирование) BD RUS
    Оригинальная аудиодорожка: английская
    Cубтитры: русские, английские
    Режиссер: Джон Маклин / John Maclean
    В ролях: Коди Смит-МакФи, Майкл Фассбендер, Бен Мендельсон, Аорере Паки, Хейден Фрост, Карен Писториус, Киран Чернок, Эдвин Райт, Джозеф Пасси, Эндрю Робертт
    Описание: История авантюриста по имени Сайлас, сопровождающего в опасном путешествии вдоль всей американской границы 16-летнего паренька по имени Джей Кавендиш. Джей разыскивает девушку, в которую влюблен.
    Они пересеклись случайно, одинокий волк, отбившийся от волчьей стаи и заяц, оказавшийся в волчьем логове. Он мог дать ему умереть, мог убить, но не вцепился в горло, а пошёл с ним по следу, помогая найти затаившуюся где-то любовь, провожая через поля ненависти и леса страха, твёрдо, не решив, что делать дальше с ним и с собой.-
    Сэмпл: скачать-Релиз от -
    Автор рипа: Elheym
    Качество: BDRip (источник: / Blu-ray Remux [Slow_West_2015_BDRemux] / 1080p)
    Контейнер: AVI
    Видео: 720x432 (1.67:1), 23.976 fps, XviD build 67 ~2019 kbps avg, 0.27 bit/pixel
    Аудио #1: Русский: AC3, 5.1, 48 kHz, ~448 Кбит/с | Профессиональный (полное дублирование) BD RUS |
    Аудио #2: Английский: AC3, 5.1, 48 kHz, ~448 Кбит/с | Оригинал | (отдельно, в составе раздачи)
    Субтитры: русские (полные), английские (полные, SDH, SDH цветные)
    Размер: 1487.90 Mb (1/3 DVD)

    MediaInfo

    Полное имя : Strogo.na.zapad.2015.RUS.BDRip.XviD.AC3.-HQCLUB.avi
    Формат : AVI
    Формат/Информация : Audio Video Interleave
    Размер файла : 1,45 Гбайт
    Продолжительность : 1 ч. 24 м.
    Общий поток : 2476 Кбит/сек
    Название фильма : Строго на запад / Slow West (2015) BDRip
    Режиссёр : Elheym
    Программа кодирования : VirtualDubMod 1.5.10.2 (build 2540/release)
    Авторское право : HQCLUB
    Примечание : 29.02.2016
    Видео
    Идентификатор : 0
    Формат : MPEG-4 Visual
    Профиль формата : Advanced Simple@L5
    Параметр BVOP формата : 1
    Параметр QPel формата : Нет
    Параметр GMC формата : Без точки перехода
    Параметр матрицы формата : Выборочная
    Идентификатор кодека : XVID
    Идентификатор кодека/Подсказка : XviD
    Продолжительность : 1 ч. 24 м.
    Битрейт : 2020 Кбит/сек
    Ширина : 720 пикселей
    Высота : 432 пикселя
    Соотношение сторон : 5:3
    Частота кадров : 23,976 (24000/1001) кадра/сек
    Цветовое пространство : YUV
    Субдискретизация насыщенности : 4:2:0
    Битовая глубина : 8 бит
    Тип развёртки : Прогрессивная
    Метод сжатия : С потерями
    Бит/(Пиксели*Кадры) : 0.271
    Размер потока : 1,19 Гбайт (82%)
    Библиотека кодирования : XviD 67
    Аудио
    Идентификатор : 1
    Формат : AC-3
    Формат/Информация : Audio Coding 3
    Расширение режима : CM (complete main)
    Параметр Endianness формата : Big
    Идентификатор кодека : 2000
    Продолжительность : 1 ч. 23 м.
    Вид битрейта : Постоянный
    Битрейт : 448 Кбит/сек
    Каналы : 6 каналов
    Расположение каналов : Front: L C R, Side: L R, LFE
    Частота : 48,0 КГц
    Частота кадров : 31,250 кадров/сек (1536 spf)
    Метод сжатия : С потерями
    Размер потока : 269 Мбайт (18%)
    Выравнивание : Разделение по промежуткам
    Продолжительность промежутка : 42 мс. (1,00 видеокадр)
    Время предзагрузки промежутка : 500 мс.

    Скриншоты

    Скачать .torrent

    Скачать торрент-файл бесплатно и на максимальной скорости!

    Как скачивать? · Что такое торрент? · Рейтинг и ограничения

    !ВНИМАНИЕ!
    Сайт не распространяет и не хранит электронные версии произведений, а занимается лишь лишь предоставлением доступа к создаваемому пользователями каталогу ссылок на торрент-файлы, которые содержат только списки хеш-сумм, убедительная просьба с жалобами обращаться напрямую к пользователю. Файлы для обмена на трекере предоставлены пользователями сайта, и администрация не несёт ответственности за их содержание. Просьба не заливать файлы, защищенные авторскими правами, а также файлы нелегального содержания!


    _________________
    [Профиль] [ЛС]
    Показать сообщения:    
    Ответить на тему

    Текущее время: Сегодня, в 05:58

    Часовой пояс: GMT + 2



    Вы не можете начинать темы
    Вы не можете отвечать на сообщения
    Вы не можете редактировать свои сообщения
    Вы не можете удалять свои сообщения
    Вы не можете голосовать в опросах
    Вы не можете прикреплять файлы к сообщениям
    Вы не можете скачивать файлы