BitTorrentTracker PerecTracker.org
BitTorrentTracker PerecTracker.org
    
Регистрация  ·  Вход
 
 · 
Забыли пароль?

  • Распутница / La matriarca / The Libertine (Паскуале Феста Кампаниле / Pasquale Festa Campanile) [1968, Италия, комедия, драма, DVDRip] AVO (А. Алексеев) + Sub Rus

    Ответить на тему
     
    Автор Сообщение

    Columb

    Создавать темы 06-Янв-2014 19:25

           

    [Цитировать]

    Распутница / La matriarca / The Libertine
    Страна: Италия
    Жанр: комедия, драма
    Год выпуска: 1968
    Продолжительность: 01:29:08
    Перевод: Авторский (одноголосый закадровый) А. Алексеев
    Cубтитры: русские (на неозвученные фрагменты) Татьяна Фалимонова
    Оригинальная аудиодорожка: нет
    Режиссер: Паскуале Феста Кампаниле / Pasquale Festa Campanile
    В ролях: Катрин Спаак, Жан-Луи Трентиньян, Луиджи Пистилли, Джиджи Проэтти и др.
    О фильме: Молодая вдова узнает, что у мужа была тайная квартира, в которой он встречался с любовницами. Она решает использовать эту квартиру для экспериментов с собственной сексуальностью...
    Доп. информация:
    Сэмпл: http://rusfolder.com/39383470
    Качество видео: DVDRip
    Формат видео: AVI
    Видео: 720x384 (1.88:1), 25 fps, XviD build 73 ~2128 kbps avg, 0.30 bit/pixel
    Аудио: 48 kHz, AC3 Dolby Digital, 2/0 (L,R) ch, ~192 kbps avg
    Формат субтитров: softsub (SRT)

    MediaInfo

    Общее
    Полное имя : E:\Фильмы\La.matriarca.1968.DVDRip\La.matriarca.1968.DVDRip.avi
    Формат : AVI
    Формат/Информация : Audio Video Interleave
    Размер файла : 1,45 Гбайт
    Продолжительность : 1 ч. 29 м.
    Общий поток : 2330 Кбит/сек
    Название фильма : La matriarca (1968) DVDRip
    Режиссёр : Pasquale Festa Campanile
    Программа кодирования : VirtualDubMod 1.5.10.2 (build 2540/release)
    Библиотека кодирования : VirtualDubMod build 2540/release
    Правообладатель : Rip by Judas_X
    Видео
    Идентификатор : 0
    Формат : MPEG-4 Visual
    Профиль формата : Advanced Simple@L5
    Параметр BVOP формата : 1
    Параметр QPel формата : Нет
    Параметр GMC формата : Без точки перехода
    Параметр матрицы формата : Выборочная
    Идентификатор кодека : XVID
    Идентификатор кодека/Подсказка : XviD
    Продолжительность : 1 ч. 29 м.
    Битрейт : 2128 Кбит/сек
    Ширина : 720 пикселей
    Высота : 384 пикселя
    Соотношение сторон : 1,85:1
    Частота кадров : 25,000 кадров/сек
    Цветовое пространство : YUV
    Субдискретизация насыщенности : 4:2:0
    Битовая глубина : 8 бит
    Тип развёртки : Прогрессивная
    Метод сжатия : С потерями
    Бит/(Пиксели*Кадры) : 0.308
    Размер потока : 1,32 Гбайт (91%)
    Библиотека кодирования : XviD 73
    Аудио
    Идентификатор : 1
    Формат : AC-3
    Формат/Информация : Audio Coding 3
    Расширение режима : CM (complete main)
    Параметр Endianness формата : Big
    Идентификатор кодека : 2000
    Продолжительность : 1 ч. 29 м.
    Вид битрейта : Постоянный
    Битрейт : 192 Кбит/сек
    Каналы : 2 канала
    Расположение каналов : Front: L R
    Частота : 48,0 КГц
    Битовая глубина : 16 бит
    Метод сжатия : С потерями
    Размер потока : 122 Мбайт (8%)
    Выравнивание : Разделение по промежуткам
    Продолжительность промежутка : 40 мс. (1,00 видеокадр)
    Время предзагрузки промежутка : 500 мс.

    Скриншоты



    Скачать .torrent

    Скачать торрент-файл бесплатно и на максимальной скорости!

    Как скачивать? · Что такое торрент? · Рейтинг и ограничения

    !ВНИМАНИЕ!
    Сайт не распространяет и не хранит электронные версии произведений, а занимается лишь лишь предоставлением доступа к создаваемому пользователями каталогу ссылок на торрент-файлы, которые содержат только списки хеш-сумм, убедительная просьба с жалобами обращаться напрямую к пользователю. Файлы для обмена на трекере предоставлены пользователями сайта, и администрация не несёт ответственности за их содержание. Просьба не заливать файлы, защищенные авторскими правами, а также файлы нелегального содержания!

    [Профиль] [ЛС]
    Показать сообщения:    
    Ответить на тему

    Текущее время: Сегодня, в 22:29

    Часовой пояс: GMT + 2



    Вы не можете начинать темы
    Вы не можете отвечать на сообщения
    Вы не можете редактировать свои сообщения
    Вы не можете удалять свои сообщения
    Вы не можете голосовать в опросах
    Вы не можете прикреплять файлы к сообщениям
    Вы не можете скачивать файлы