Register  ·  Log in
Forgot password?

  • Цюрих / Zurich (Саша Полак / Sacha Polak) [2015, Германия, Нидерланды, Бельгия, Драма, DVDRip] VO (datynet; перевод: Куценко)

    Reply to topic
    Author Message


    Post 29-Feb-2016 11:12



    Цюрих / ZurichСтрана: Германия, Нидерланды, Бельгия
    Жанр: Драма
    Год выпуска: 2015
    Продолжительность: 01:24:46
    Перевод: Одноголосый закадровый datynet; перевод: Куценко
    Cубтитры: нет
    Режиссер: Саша Полак / Sacha Polak
    В ролях: Мартин Лэйкмейер, Барри Атсма, Тристан Гёбель, Венде Снейдерс
    Описание: «Цюрих» (Zurich) – драматический фильм режиссера Саши Полак. Действие следует за Ниной (Венде Снейдерс), которая в отчаянной попытке забыть прошлое блуждает вдоль автомобильных дорог Европы. Она замкнулась, закрылась ото всех и нуждается в постоянном движении, избегая того, чтобы оглянуться назад.
    Здесь она встречает немецкого водителя грузовика Матиаса и отправляется колесить по автострадам вместе с ним. Время идет, а боль не отпускает. И постепенно становится ясно, что причина того, что Нина выбрала жизнь среди дальнобойщиков, связана с предательством, которое она ранее пережила.

    Доп. информация:

    Качество видео: DVDRip
    Формат видео: MKV
    Видео: MPEG4 Video (H264) 720x398 25fps
    Аудио: 48Hz, MP3, stereo, 192 kb/s


    Unique ID : 183889881701405632103481012816848446613 (0x8A57E728A3A88177BCFF6168F1E56495)
    Complete name : E:\Zurich.2015.DVDRip.\zurich.2015.dvdrip..mkv
    Format : Matroska
    Format version : Version 4 / Version 2
    File size : 651 MiB
    Duration : 1h 24mn
    Overall bit rate : 1 074 Kbps
    Encoded date : UTC 2016-02-28 10:22:55
    Writing application : mkvmerge v8.6.1 ('Flying') 64bit
    Writing library : libebml v1.3.3 + libmatroska v1.4.4
    ID : 1
    Format : AVC
    Format/Info : Advanced Video Codec
    Format profile : High@L3.1
    Format settings, CABAC : Yes
    Format settings, ReFrames : 5 frames
    Codec ID : V_MPEG4/ISO/AVC
    Duration : 1h 24mn
    Bit rate : 861 Kbps
    Width : 720 pixels
    Height : 398 pixels
    Display aspect ratio : 16:9
    Frame rate mode : Constant
    Frame rate : 25.000 fps
    Color space : YUV
    Chroma subsampling : 4:2:0
    Bit depth : 8 bits
    Scan type : Progressive
    Bits/(Pixel*Frame) : 0.120
    Stream size : 522 MiB (80%)
    Default : Yes
    Forced : No
    ID : 2
    Format : MPEG Audio
    Format version : Version 1
    Format profile : Layer 3
    Codec ID : A_MPEG/L3
    Codec ID/Hint : MP3
    Duration : 1h 24mn
    Bit rate mode : Constant
    Bit rate : 192 Kbps
    Channel(s) : 2 channels
    Sampling rate : 48.0 KHz
    Compression mode : Lossy
    Stream size : 116 MiB (18%)
    Default : Yes
    Forced : No

    Скриншот c названием фильма


    Download .torrent

    Download free and at maximum speed!

    How to Download? · What is a torrent? · Ratings and Limitations

    The site does not extend and does not store electronic(digital) versions of products, and only gives access to a reference catalogue created by users on torrent-files which contain only lists of the hash-sums, the earnest entreaty, with complaints(abuse) to access directly to the user. Files for an exchange on tracker are given by users of a site, and the administration does not bear the responsibility for their maintenance. The request to not fill in the files protected by copyrights, and also files of the illegal maintenance!

    [Profile] [PM]
    Display posts from previous:    
    Reply to topic

    The time now is: Today 14:24

    All times are GMT + 3 Hours

    You cannot post new topics in this forum
    You cannot reply to topics in this forum
    You cannot edit your posts in this forum
    You cannot delete your posts in this forum
    You cannot vote in polls in this forum
    You cannot attach files in this forum
    You cannot download files in this forum