BitTorrentTracker PerecTracker.org
BitTorrentTracker PerecTracker.org
    
Регистрация  ·  Вход
 
 · 
Забыли пароль?

  • Цюрих / Zurich (Саша Полак / Sacha Polak) [2015, Германия, Нидерланды, Бельгия, Драма, DVDRip] VO (datynet; перевод: Куценко)

    Ответить на тему
     
    Автор Сообщение

    rechyn

    Создавать темы 29-Фев-2016 10:12

           

    [Цитировать]

    Цюрих / ZurichСтрана: Германия, Нидерланды, Бельгия
    Жанр: Драма
    Год выпуска: 2015
    Продолжительность: 01:24:46
    Перевод: Одноголосый закадровый datynet; перевод: Куценко
    Cубтитры: нет
    Режиссер: Саша Полак / Sacha Polak
    В ролях: Мартин Лэйкмейер, Барри Атсма, Тристан Гёбель, Венде Снейдерс
    Описание: «Цюрих» (Zurich) – драматический фильм режиссера Саши Полак. Действие следует за Ниной (Венде Снейдерс), которая в отчаянной попытке забыть прошлое блуждает вдоль автомобильных дорог Европы. Она замкнулась, закрылась ото всех и нуждается в постоянном движении, избегая того, чтобы оглянуться назад.
    Здесь она встречает немецкого водителя грузовика Матиаса и отправляется колесить по автострадам вместе с ним. Время идет, а боль не отпускает. И постепенно становится ясно, что причина того, что Нина выбрала жизнь среди дальнобойщиков, связана с предательством, которое она ранее пережила.

    Доп. информация:

    Сэмпл: http://sendfile.su/1208757
    Качество видео: DVDRip
    Формат видео: MKV
    Видео: MPEG4 Video (H264) 720x398 25fps
    Аудио: 48Hz, MP3, stereo, 192 kb/s

    MediaInfo

    General
    Unique ID : 183889881701405632103481012816848446613 (0x8A57E728A3A88177BCFF6168F1E56495)
    Complete name : E:\Zurich.2015.DVDRip.\zurich.2015.dvdrip..mkv
    Format : Matroska
    Format version : Version 4 / Version 2
    File size : 651 MiB
    Duration : 1h 24mn
    Overall bit rate : 1 074 Kbps
    Encoded date : UTC 2016-02-28 10:22:55
    Writing application : mkvmerge v8.6.1 ('Flying') 64bit
    Writing library : libebml v1.3.3 + libmatroska v1.4.4
    Video
    ID : 1
    Format : AVC
    Format/Info : Advanced Video Codec
    Format profile : High@L3.1
    Format settings, CABAC : Yes
    Format settings, ReFrames : 5 frames
    Codec ID : V_MPEG4/ISO/AVC
    Duration : 1h 24mn
    Bit rate : 861 Kbps
    Width : 720 pixels
    Height : 398 pixels
    Display aspect ratio : 16:9
    Frame rate mode : Constant
    Frame rate : 25.000 fps
    Color space : YUV
    Chroma subsampling : 4:2:0
    Bit depth : 8 bits
    Scan type : Progressive
    Bits/(Pixel*Frame) : 0.120
    Stream size : 522 MiB (80%)
    Default : Yes
    Forced : No
    Audio
    ID : 2
    Format : MPEG Audio
    Format version : Version 1
    Format profile : Layer 3
    Codec ID : A_MPEG/L3
    Codec ID/Hint : MP3
    Duration : 1h 24mn
    Bit rate mode : Constant
    Bit rate : 192 Kbps
    Channel(s) : 2 channels
    Sampling rate : 48.0 KHz
    Compression mode : Lossy
    Stream size : 116 MiB (18%)
    Default : Yes
    Forced : No

    Скриншот c названием фильма

    Скриншоты





    Скачать .torrent

    Скачать торрент-файл бесплатно и на максимальной скорости!

    Как скачивать? · Что такое торрент? · Рейтинг и ограничения

    !ВНИМАНИЕ!
    Сайт не распространяет и не хранит электронные версии произведений, а занимается лишь лишь предоставлением доступа к создаваемому пользователями каталогу ссылок на торрент-файлы, которые содержат только списки хеш-сумм, убедительная просьба с жалобами обращаться напрямую к пользователю. Файлы для обмена на трекере предоставлены пользователями сайта, и администрация не несёт ответственности за их содержание. Просьба не заливать файлы, защищенные авторскими правами, а также файлы нелегального содержания!


    _________________
    [Профиль] [ЛС]
    Показать сообщения:    
    Ответить на тему

    Текущее время: Сегодня, в 11:41

    Часовой пояс: GMT + 2



    Вы не можете начинать темы
    Вы не можете отвечать на сообщения
    Вы не можете редактировать свои сообщения
    Вы не можете удалять свои сообщения
    Вы не можете голосовать в опросах
    Вы не можете прикреплять файлы к сообщениям
    Вы не можете скачивать файлы