Register  ·  Log in
Forgot password?

  • Незнакомец / El desconocido (Дэни Де Ла Торре / Dani de la Torre) [2015, Испания, Триллер, HDRip] MVO (Paradox & Omskbird records)

    Reply to topic
    Author Message


    Post 29-Feb-2016 11:12



    -Незнакомец / El desconocido--Страна: Испания
    Жанр: Триллер
    Год выпуска: 2015
    Продолжительность: 01:40:32-Перевод: Любительский (многоголосый закадровый) Paradox & Omskbird records-Cубтитры: нет
    Оригинальная аудиодорожка: нет-Режиссер: Дэни Де Ла Торре / Dani de la Torre-В ролях: Луис Тосар, Хавьер Гутьеррес, Эльвира Мингес, Фернандо Кайо, Гойя Толедо, Паула дель Рио, Марко Санс, Антонио Моурелос, Рикардо де Баррейро, Мария Мера-Описание: Находясь в машине вместе со своими детьми, управляющий банка получает анонимный телефонный звонок. Незнакомый голос сообщает ему, что у него есть всего несколько часов, на то, чтобы найти большую сумму денег, иначе бомба под его сиденьем взорвется…---Качество видео: HDRip
    Формат видео: AVI-Видео: XviD, 720x304 (2.35:1), 23.976 fps, ~1680 kbps avg, 0.32 bit/pixel
    Аудио: 48 kHz, AC3 Dolby Digital, 3/2 (L,C,R,l,r) + LFE ch, ~448 kbps avg-


    Complete name : C:\Users\1\Desktop\РАЗДАЧИ\El desconocido (2015) HDRip.avi
    Format : AVI
    Format/Info : Audio Video Interleave
    File size : 1.45 GiB
    Duration : 1h 40mn
    Overall bit rate : 2 067 Kbps
    Writing application : VirtualDubMod | || (build 2550/release)
    Writing library : VirtualDubMod build 2550/release
    ID : 0
    Format : MPEG-4 Visual
    Format profile : Advanced Simple@L5
    Format settings, BVOP : 1
    Format settings, QPel : No
    Format settings, GMC : No warppoints
    Format settings, Matrix : Custom
    Codec ID : XVID
    Codec ID/Hint : XviD
    Duration : 1h 40mn
    Bit rate : 1 609 Kbps
    Width : 720 pixels
    Height : 304 pixels
    Display aspect ratio : 2.35:1
    Frame rate : 23.976 (23976/1000) fps
    Color space : YUV
    Chroma subsampling : 4:2:0
    Bit depth : 8 bits
    Scan type : Progressive
    Compression mode : Lossy
    Bits/(Pixel*Frame) : 0.307
    Stream size : 1.13 GiB (78%)
    Writing library : XviD 73
    ID : 1
    Format : AC-3
    Format/Info : Audio Coding 3
    Mode extension : CM (complete main)
    Format settings, Endianness : Big
    Codec ID : 2000
    Duration : 1h 40mn
    Bit rate mode : Constant
    Bit rate : 448 Kbps
    Channel(s) : 6 channels
    Channel positions : Front: L C R, Side: L R, LFE
    Sampling rate : 48.0 KHz
    Frame rate : 31.250 fps (1536 spf)
    Compression mode : Lossy
    Stream size : 322 MiB (22%)
    Alignment : Split accross interleaves
    Interleave, duration : 42 ms (1.00 video frame)
    Interleave, preload duratio : 500 ms

    Скриншот c названием фильма


    Download .torrent

    Download free and at maximum speed!

    How to Download? · What is a torrent? · Ratings and Limitations

    The site does not extend and does not store electronic(digital) versions of products, and only gives access to a reference catalogue created by users on torrent-files which contain only lists of the hash-sums, the earnest entreaty, with complaints(abuse) to access directly to the user. Files for an exchange on tracker are given by users of a site, and the administration does not bear the responsibility for their maintenance. The request to not fill in the files protected by copyrights, and also files of the illegal maintenance!

    [Profile] [PM]
    Display posts from previous:    
    Reply to topic

    The time now is: Today 19:24

    All times are GMT + 3 Hours

    You cannot post new topics in this forum
    You cannot reply to topics in this forum
    You cannot edit your posts in this forum
    You cannot delete your posts in this forum
    You cannot vote in polls in this forum
    You cannot attach files in this forum
    You cannot download files in this forum