BitTorrentTracker PerecTracker.org
BitTorrentTracker PerecTracker.org
    
Регистрация  ·  Вход
 
 · 
Забыли пароль?

  • Иностранная интрига / Foreign Intrigue (Шелдон Рейнольдс / Sheldon Reynolds) [1956, США, триллер, шпионский, HDTVRip] DVO

    Ответить на тему
     
    Автор Сообщение

    Columb

    Создавать темы 06-Янв-2014 19:22

           

    [Цитировать]

    Иностранная интрига / Foreign Intrigue
    Страна: США
    Жанр: триллер, шпионский
    Год выпуска: 1956
    Продолжительность: 01:34:08
    Перевод: Профессиональный (двухголосый закадровый)
    Cубтитры: нет
    Режиссер: Шелдон Рейнольдс / Sheldon Reynolds
    В ролях: Роберт Митчум / Robert Mitchum
    Женевьев Паж / Genevieve Page
    Ингрид Тулин / Ingrid Thulin
    Фредерик О’Брэди / Frederic O'Brady
    Юджин Декерс / Eugene Deckers
    Описание: Миллионер Виктор Данемор, живущий на Французской Ривьере, неожиданно умирает от сердечного приступа. Его секретарь Дэйв Бишоп решает побольше узнает о своем бывшем работодателе. Оказывается, что даже его молодая жена не знает ничего о прошлом своего мужа и о том, как он заработал состояние. Следы ведут Бишопа в Вену и Стокгольм, где он узнает о том, что Данемор шантажировал людей, которые работали на нацистов во время Второй мировой войны.
    Доп. информация: За предоставленный рип благодарим Ledy_X
    "Спасибы" просьба ПИСАТЬ в теме, тем самым вы продлеваете жизнь раздаче.
    Качество видео: HDTVRip [Исходник 1080i]
    Формат видео: AVI
    Видео: 720x400 (1.80:1), 25 fps, XviD build 50 ~1996 kbps avg, 0.28 bit/pixel
    Аудио: 48 kHz, AC3 Dolby Digital, 2/0 (L,R) ch, ~192 kbps

    MediaInfo

    Иностранная интрига - Foreign Intrigue [Rip by Ledy_X].avi
    Format : AVI
    Format/Info : Audio Video Interleave
    File size : 1.45 GiB
    Duration : 1h 34mn
    Overall bit rate : 2 198 Kbps
    Movie name : Иностранная интрига - Foreign Intrigue [Rip by Ledy_X]
    Director : Rip by Ledy_X
    Writing application : VirtualDubMod 1.5.10.2 (build 2540/release)
    Copyright : Edich2
    Comment : RuTracker.org
    Video
    ID : 0
    Format : MPEG-4 Visual
    Format profile : Advanced Simple@L5
    Format settings, BVOP : 2
    Format settings, QPel : No
    Format settings, GMC : No warppoints
    Format settings, Matrix : Custom
    Codec ID : XVID
    Codec ID/Hint : XviD
    Duration : 1h 34mn
    Bit rate : 1 996 Kbps
    Width : 720 pixels
    Height : 400 pixels
    Display aspect ratio : 16:9
    Frame rate : 25.000 fps
    Color space : YUV
    Chroma subsampling : 4:2:0
    Bit depth : 8 bits
    Scan type : Progressive
    Compression mode : Lossy
    Bits/(Pixel*Frame) : 0.277
    Stream size : 1.31 GiB (91%)
    Writing library : XviD 1.2.1 (UTC 2008-12-04)
    Audio
    ID : 1
    Format : AC-3
    Format/Info : Audio Coding 3
    Mode extension : CM (complete main)
    Format settings, Endianness : Big
    Codec ID : 2000
    Duration : 1h 34mn
    Bit rate mode : Constant
    Bit rate : 192 Kbps
    Channel count : 2 channels
    Channel positions : Front: L R
    Sampling rate : 48.0 KHz
    Bit depth : 16 bits
    Compression mode : Lossy
    Stream size : 129 MiB (9%)
    Alignment : Split accross interleaves
    Interleave, duration : 40 ms (1.00 video frame)
    Interleave, preload duration : 500 ms

    Скриншоты


    Скачать .torrent

    Скачать торрент-файл бесплатно и на максимальной скорости!

    Как скачивать? · Что такое торрент? · Рейтинг и ограничения

    !ВНИМАНИЕ!
    Сайт не распространяет и не хранит электронные версии произведений, а занимается лишь лишь предоставлением доступа к создаваемому пользователями каталогу ссылок на торрент-файлы, которые содержат только списки хеш-сумм, убедительная просьба с жалобами обращаться напрямую к пользователю. Файлы для обмена на трекере предоставлены пользователями сайта, и администрация не несёт ответственности за их содержание. Просьба не заливать файлы, защищенные авторскими правами, а также файлы нелегального содержания!

    [Профиль] [ЛС]
    Показать сообщения:    
    Ответить на тему

    Текущее время: Сегодня, в 01:56

    Часовой пояс: GMT + 2



    Вы не можете начинать темы
    Вы не можете отвечать на сообщения
    Вы не можете редактировать свои сообщения
    Вы не можете удалять свои сообщения
    Вы не можете голосовать в опросах
    Вы не можете прикреплять файлы к сообщениям
    Вы не можете скачивать файлы