BitTorrentTracker PerecTracker.org
BitTorrentTracker PerecTracker.org
    
Регистрация  ·  Вход
 
 · 
Забыли пароль?

  • Хулиган / Hellion (Кэт Кэндлер / Kat Candler) [2014, США, Драма, BDRip] Dub

    Ответить на тему
     
    Автор Сообщение

    rechyn

    Создавать темы 29-Фев-2016 01:54

           

    [Цитировать]

    Хулиган / Hellion
    «Его ничто не остановит»
    -Год выпуска: 2014
    Выпущено: США / Across Town Productions
    Жанр: драма
    Продолжительность: 01:35:01
    Перевод: Профессиональный (полное дублирование) BD RUS |Лицензия|
    Cубтитры: нет-Режиссер:
    Кэт Кэндлер / Kat Candler-В ролях:
    Аарон Пол (Hollis Wilson), Джульетт Льюис (Pam Noonan), Джош Уиггинс (Jacob Wilson), Дек Гарнер (Wes Wilson), Далтон Саттон (Lance), Кэмрон Оуэнс (Roger), Дилан Коул (Hyder), Джонни Марс (Duncan), Уолт Робертс (Officer Handly), Аннали Джеффрис (Fran Roberts)-О фильме:
    Отца двух мальчиков Холлиса лишают родительских прав, забрав младшего сына.
    Это становится точкой невозврата для старшего сына Джейкоба, увлекающегося гонками. Восставший против отца, страстно одержимый только двумя вещами: выиграть чемпионат по мотокроссу и вернуть младшего брата домой, Джейкоб не остановится ни перед чем… Совершая одно преступление за другим, отчаянный 13-летний трудный подросток, мастерски уходит от погони.
    Отцу в одиночку предстоит сразиться с системой, вернуть обоих сыновей и повернуть жизнь в прежнее русло.-Релиз групп
    | | IMDB | КиноПоиск | Сэмпл |-Качество: BDRip [Blu-Ray Disc | 1080i | Rus-Transfer]
    Формат: AVI
    Видео: 720x304 (2.37:1), 25 fps, XviD build 67 ~1797 kbps avg, 0.33 bit/pixel
    Аудио: 48 kHz, AC3 Dolby Digital, 3/2 (L,C,R,l,r) + LFE ch, ~384.00 kbps avg-

    Скриншоты

    -

    MediaInfo

    General
    Complete name                            : D:\Huligan_2014_BDRip_by_Dalemake.avi
    Format                                   : AVI
    Format/Info                              : Audio Video Interleave
    File size                                : 1.45 GiB
    Duration                                 : 1h 35mn
    Overall bit rate                         : 2 191 Kbps
    Writing application                      : VirtualDubMod 1.5.10.3 | www.virtualdub-fr.org || (build 2550/release)
    Writing library                          : VirtualDubMod build 2550/release
    Video
    ID                                       : 0
    Format                                   : MPEG-4 Visual
    Format profile                           : Advanced Simple@L5
    Format settings, BVOP                    : 1
    Format settings, QPel                    : No
    Format settings, GMC                     : No warppoints
    Format settings, Matrix                  : Custom
    Codec ID                                 : XVID
    Codec ID/Hint                            : XviD
    Duration                                 : 1h 35mn
    Bit rate                                 : 1 797 Kbps
    Width                                    : 720 pixels
    Height                                   : 304 pixels
    Display aspect ratio                     : 2.35:1
    Frame rate                               : 25.000 fps
    Color space                              : YUV
    Chroma subsampling                       : 4:2:0
    Bit depth                                : 8 bits
    Scan type                                : Progressive
    Compression mode                         : Lossy
    Bits/(Pixel*Frame)                       : 0.328
    Stream size                              : 1.19 GiB (82%)
    Writing library                          : XviD 67
    Audio
    ID                                       : 1
    Format                                   : AC-3
    Format/Info                              : Audio Coding 3
    Mode extension                           : CM (complete main)
    Format settings, Endianness              : Big
    Codec ID                                 : 2000
    Duration                                 : 1h 35mn
    Bit rate mode                            : Constant
    Bit rate                                 : 384 Kbps
    Channel(s)                               : 6 channels
    Channel positions                        : Front: L C R, Side: L R, LFE
    Sampling rate                            : 48.0 KHz
    Frame rate                               : 31.250 fps (1536 spf)
    Compression mode                         : Lossy
    Stream size                              : 261 MiB (18%)
    Alignment                                : Split accross interleaves
    Interleave, duration                     : 40 ms (1.00 video frame)
    Interleave, preload duration             : 500 ms
    -
    Скачать .torrent

    Скачать торрент-файл бесплатно и на максимальной скорости!

    Как скачивать? · Что такое торрент? · Рейтинг и ограничения

    !ВНИМАНИЕ!
    Сайт не распространяет и не хранит электронные версии произведений, а занимается лишь лишь предоставлением доступа к создаваемому пользователями каталогу ссылок на торрент-файлы, которые содержат только списки хеш-сумм, убедительная просьба с жалобами обращаться напрямую к пользователю. Файлы для обмена на трекере предоставлены пользователями сайта, и администрация не несёт ответственности за их содержание. Просьба не заливать файлы, защищенные авторскими правами, а также файлы нелегального содержания!


    _________________
    [Профиль] [ЛС]
    Показать сообщения:    
    Ответить на тему

    Текущее время: Сегодня, в 02:37

    Часовой пояс: GMT + 2



    Вы не можете начинать темы
    Вы не можете отвечать на сообщения
    Вы не можете редактировать свои сообщения
    Вы не можете удалять свои сообщения
    Вы не можете голосовать в опросах
    Вы не можете прикреплять файлы к сообщениям
    Вы не можете скачивать файлы