BitTorrentTracker PerecTracker.org
BitTorrentTracker PerecTracker.org
    
Регистрация  ·  Вход
 
 · 
Забыли пароль?

  • Шпионский мост / Bridge of Spies (Стивен Спилберг / Steven Spielberg) [2015, США, Германия, Индия, триллер, драма, биография, BDRip] Dub + Original Eng + Subs (rus, eng)

    Ответить на тему
     
    Автор Сообщение

    rechyn

    Создавать темы 29-Фев-2016 01:54

           

    [Цитировать]

    Шпионский мост / Bridge of Spies
    «Когда мир на грани войны, лишь честь одного человека может предотвратить катастрофу»
    -Страна: США, Германия, Индия / Amblin Entertainment, DreamWorks SKG, Fox 2000 Pictures...
    Жанр: триллер, драма, биография
    Год выпуска: 2015
    Продолжительность: 02:21:19
    Перевод: Профессиональный (дублированный) лицензия iTunes
    Cубтитры: русские (forced+full) + английские (full+full SDH+full SDH-Colored)
    Оригинальная аудиодорожка: английский
    Режиссёр: Стивен Спилберг / Steven Spielberg
    В ролях: Том Хэнкс, Марк Райлэнс, Эми Райан, Алан Алда, Остин Стоуэлл, Скотт Шеперд, Джесси Племонс, Доменик Ломбардоззи, Себастьян Кох, Ив Хьюсон.
    Описание: Действие фильма происходит на фоне серии реальных исторических событий и рассказывает о бруклинском адвокате Джеймсе Доноване, который оказывается в эпицентре холодной войны, когда ЦРУ отправляет его на практически невозможное задание — договориться об освобождении захваченного в СССР американского пилота самолета-разведчика U2.-Доп. информация: в раздаче присутствуют (rus forced.srt) субтитры на надписи и немецкую речь.-Рейтинг
    imdb.com: 7.70 (120 339)
    kinopoisk.ru: 7.538 (37 582)
    MPAA: - детям до 13 лет просмотр не желателен-Сэмпл: http://multi-up.com/1091004-Качество видео: BDRip [BRIDGE_OF_SPIES_REMUX_HDCLUB]
    Формат видео: AVI
    Видео: XviD build 66, 720x304 (2.37:1), 23.976 fps, ~2165 kbps avg, 0.412 bit/pixel
    Аудио 1: 48 kHz, AC3 Dolby Digital, 3/2 (L,C,R,l,r) + LFE ch, ~384 kbps avg (RUS)
    Аудио 2: 48 kHz, AC3 Dolby Digital, 3/2 (L,C,R,l,r) + LFE ch, ~384 kbps avg (ENG)
    Формат субтитров: softsub (SRT)
    -

    MediaInfo

    Общее
    Полное имя : D:\Bridge.of.Spiers.2015.DUAL.BDRip.2,91Gb.XviD.AC3\Bridge.of.Spiers.2015.DUAL.BDRip.2,91Gb.XviD.AC3.avi
    Формат : AVI
    Формат/Информация : Audio Video Interleave
    Профиль формата : OpenDML
    Размер файла : 2,91 Гбайт
    Продолжительность : 2 ч. 21 м.
    Общий поток : 2948 Кбит/сек
    Название фильма : Bridge of Spies 2015
    Режиссёр : Steven Spielberg
    Дата записи : 22.02.2016
    Программа кодирования : VirtualDubModRus 1.5.10.2 (build 2542/release)
    Библиотека кодирования : VirtualDubMod build 2542/release
    Правообладатель : Rutracker.org
    Примечание : BDRip by MooN_WalkeR
    Видео
    Идентификатор : 0
    Формат : MPEG-4 Visual
    Профиль формата : Advanced Simple@L5
    Параметр BVOP формата : 1
    Параметр QPel формата : Нет
    Параметр GMC формата : Без точки перехода
    Параметр матрицы формата : Выборочная
    Идентификатор кодека : XVID
    Идентификатор кодека/Подсказка : XviD
    Продолжительность : 2 ч. 21 м.
    Битрейт : 2165 Кбит/сек
    Ширина : 720 пикселей
    Высота : 304 пикселя
    Соотношение сторон : 2,35:1
    Частота кадров : 23,976 кадра/сек
    Цветовое пространство : YUV
    Субдискретизация насыщенности : 4:2:0
    Битовая глубина : 8 бит
    Тип развёртки : Прогрессивная
    Метод сжатия : С потерями
    Бит/(Пиксели*Кадры) : 0.412
    Размер потока : 2,14 Гбайт (73%)
    Библиотека кодирования : XviD 66
    Аудио #1
    Идентификатор : 1
    Формат : AC-3
    Формат/Информация : Audio Coding 3
    Расширение режима : CM (complete main)
    Параметр Endianness формата : Big
    Идентификатор кодека : 2000
    Продолжительность : 2 ч. 21 м.
    Вид битрейта : Постоянный
    Битрейт : 384 Кбит/сек
    Каналы : 6 каналов
    Расположение каналов : Front: L C R, Side: L R, LFE
    Частота : 48,0 КГц
    Битовая глубина : 16 бит
    Метод сжатия : С потерями
    Размер потока : 388 Мбайт (13%)
    Выравнивание : Разделение по промежуткам
    Продолжительность промежутка : 42 мс. (1,00 видеокадр)
    Время предзагрузки промежутка : 500 мс.
    Заголовок : RUS
    Аудио #2
    Идентификатор : 2
    Формат : AC-3
    Формат/Информация : Audio Coding 3
    Расширение режима : CM (complete main)
    Параметр Endianness формата : Big
    Идентификатор кодека : 2000
    Продолжительность : 2 ч. 21 м.
    Вид битрейта : Постоянный
    Битрейт : 384 Кбит/сек
    Каналы : 6 каналов
    Расположение каналов : Front: L C R, Side: L R, LFE
    Частота : 48,0 КГц
    Битовая глубина : 16 бит
    Метод сжатия : С потерями
    Размер потока : 388 Мбайт (13%)
    Выравнивание : Разделение по промежуткам
    Продолжительность промежутка : 42 мс. (1,00 видеокадр)
    Время предзагрузки промежутка : 500 мс.
    Заголовок : ENG

    Скриншоты


    Скачать .torrent

    Скачать торрент-файл бесплатно и на максимальной скорости!

    Как скачивать? · Что такое торрент? · Рейтинг и ограничения

    !ВНИМАНИЕ!
    Сайт не распространяет и не хранит электронные версии произведений, а занимается лишь лишь предоставлением доступа к создаваемому пользователями каталогу ссылок на торрент-файлы, которые содержат только списки хеш-сумм, убедительная просьба с жалобами обращаться напрямую к пользователю. Файлы для обмена на трекере предоставлены пользователями сайта, и администрация не несёт ответственности за их содержание. Просьба не заливать файлы, защищенные авторскими правами, а также файлы нелегального содержания!


    _________________
    [Профиль] [ЛС]
    Показать сообщения:    
    Ответить на тему

    Текущее время: Сегодня, в 03:00

    Часовой пояс: GMT + 2



    Вы не можете начинать темы
    Вы не можете отвечать на сообщения
    Вы не можете редактировать свои сообщения
    Вы не можете удалять свои сообщения
    Вы не можете голосовать в опросах
    Вы не можете прикреплять файлы к сообщениям
    Вы не можете скачивать файлы