BitTorrentTracker PerecTracker.org
BitTorrentTracker PerecTracker.org
    
Регистрация  ·  Вход
 
 · 
Забыли пароль?

  • Взломщик (Валерий Огородников) [1986, драма, DVDRip]

    Ответить на тему
     
    Автор Сообщение

    rechyn

    Создавать темы 28-Фев-2016 21:42

           

    [Цитировать]

    Взломщик
    Жанр: драма
    Год выпуска: 1986
    Продолжительность: 01:23:35

    Режиссёр: Валерий Огородников
    В ролях: Олег Елыкомов, Константин Кинчев, Юрий Цапник, Светлана Гайтан, Полина Петренко, Михаил Парфенов, Петр Семак, Олег Гаркуша, Олег Ковалов
    Описание: После смерти матери тринадцатилетний Семен берет на себя ответственность за семью. Он мечтает, чтобы отец перестал пить, женился и был бы счастлив. Подросток верит в талант старшего брата и оберегает его от неверных шагов.
    В фильме много музыки популярных рок-групп конца 80-х годов: "Алиса", "Аукцион", "Авиа", "Буратино", "Кофе", "Присутствие".
    -
    -
    -За основу взята дорожка из исходного DVD. Поэпизодный рассинхрон выправлен на глаз. Более точно без какого-либо шаблона сделать, увы, невозможно. Часть реплик, отсутствующих и, скорее всего, варварски отрезанных при мотаже удалось заменить на кусочки из раздачи VHSRip (спасибо GorelovDenis). Качество звука там караульное. Но, за неимением лучшего... Синхронизация осложнялась ещё и тем, что часть актеров имеет неродные голоса. Из-за этого уложить звук точно в губы - дело утопичное. Если где-то не идеально легло - прошу сильно не пинать. Полночи просидел всё-таки.
    Кадр гуляет из стороны в сторону. Поэтому подрезать поля по самую хряпку не стал. Оставил максимально возможное наполнение.-
    -
    -Качество видео: DVDRip
    Формат видео: AVI
    Видео: 640x480 (1.33:1), 25 fps, XviD build 73 ~2289 kbps avg, 0.30 bit/pixel
    Аудио: 48 kHz, AC3 Dolby Digital, 2/0 (L,R) ch, ~192 kbps

    Сравнение

    http://perectracker.org/viewtopic.php?t=2961935
    помимо плавающего рассинхрона
    http://screenshotcomparison.com/comparison/163701

    MediaInfo

    Общее
    Полное имя : H:\Взломщик.1986.dvdrip_[1.46]_[teko].avi
    Формат : AVI
    Формат/Информация : Audio Video Interleave
    Размер файла : 1,45 Гбайт
    Продолжительность : 1 ч. 23 м.
    Общий поток : 2491 Кбит/сек
    Программа кодирования : VirtualDubMod 1.5.10.3 | www.virtualdub-fr.org || (build 2550/release)
    Библиотека кодирования : VirtualDubMod build 2550/release
    Видео
    Идентификатор : 0
    Формат : MPEG-4 Visual
    Профиль формата : Advanced Simple@L5
    Параметр BVOP формата : 2
    Параметр QPel формата : Нет
    Параметр GMC формата : Без точки перехода
    Параметр матрицы формата : Выборочная
    Идентификатор кодека : XVID
    Идентификатор кодека/Подсказка : XviD
    Продолжительность : 1 ч. 23 м.
    Битрейт : 2290 Кбит/сек
    Ширина : 640 пикселей
    Высота : 480 пикселей
    Соотношение сторон : 4:3
    Частота кадров : 25,000 кадров/сек
    Цветовое пространство : YUV
    Субдискретизация насыщенности : 4:2:0
    Битовая глубина : 8 бит
    Тип развёртки : Прогрессивная
    Метод сжатия : С потерями
    Бит/(Пиксели*Кадры) : 0.298
    Размер потока : 1,34 Гбайт (92%)
    Библиотека кодирования : XviD 73
    Аудио
    Идентификатор : 1
    Формат : AC-3
    Формат/Информация : Audio Coding 3
    Расширение режима : CM (complete main)
    Параметр Endianness формата : Big
    Идентификатор кодека : 2000
    Продолжительность : 1 ч. 23 м.
    Вид битрейта : Постоянный
    Битрейт : 192 Кбит/сек
    Каналы : 2 канала
    Расположение каналов : Front: L R
    Частота : 48,0 КГц
    Битовая глубина : 16 бит
    Метод сжатия : С потерями
    Размер потока : 115 Мбайт (8%)
    Выравнивание : Разделение по промежуткам
    Продолжительность промежутка : 40 мс. (1,00 видеокадр)
    Время предзагрузки промежутка : 500 мс.

    Скриншоты

    Релиз группы:

    -
    -
    Скачать .torrent

    Скачать торрент-файл бесплатно и на максимальной скорости!

    Как скачивать? · Что такое торрент? · Рейтинг и ограничения

    !ВНИМАНИЕ!
    Сайт не распространяет и не хранит электронные версии произведений, а занимается лишь лишь предоставлением доступа к создаваемому пользователями каталогу ссылок на торрент-файлы, которые содержат только списки хеш-сумм, убедительная просьба с жалобами обращаться напрямую к пользователю. Файлы для обмена на трекере предоставлены пользователями сайта, и администрация не несёт ответственности за их содержание. Просьба не заливать файлы, защищенные авторскими правами, а также файлы нелегального содержания!


    _________________
    [Профиль] [ЛС]
    Показать сообщения:    
    Ответить на тему

    Текущее время: Сегодня, в 23:57

    Часовой пояс: GMT + 2



    Вы не можете начинать темы
    Вы не можете отвечать на сообщения
    Вы не можете редактировать свои сообщения
    Вы не можете удалять свои сообщения
    Вы не можете голосовать в опросах
    Вы не можете прикреплять файлы к сообщениям
    Вы не можете скачивать файлы