BitTorrentTracker PerecTracker.org
BitTorrentTracker PerecTracker.org
    
Регистрация  ·  Вход
 
 · 
Забыли пароль?

  • Француз / Un Français / French Blood (Дьястем / Diastème) [2015, Франция, драма, BDRip 720p] MVO (Paradox & Omskbird records) + Original (Fre) + Sub (Rus, Eng, Ger, Fre)

    Ответить на тему
     
    Автор Сообщение

    Flirldrerve

    Создавать темы 28-Фев-2016 21:42

           

    [Цитировать]

    Француз / Un Français / French BloodСтрана: Франция
    Жанр: драма
    Год выпуска: 2015
    Продолжительность: 01:37:11
    Перевод: Любительский (многоголосый закадровый) Студия "Paradox & Omskbird records" // Перевод: Екатерина Кузнецова
    Cубтитры: английские, немецкие, французские, русские
    Оригинальная аудиодорожка: французский
    Режиссер: Дьястем / Diastème
    В ролях: Элбан Ленуар, Samuel Jouy, Поль Ами, Olivier Chenille, Джинн Роза, Патрик Пино, Lucie Debay, Рено Леба, Бландин Пелиссье, Алекс Мартин
    Описание:
    Марко — настоящий скинхед. Вместе со своими приятелями, Брагетом, Гран-Ги и Марвеном, он дубасит арабов и расклеивает плакаты ультраправых. Это продолжается до тех пор, пока он не начинает чувствовать, что вся эта ненависть улетучилась. Но как избавиться от жестокости, злости и глупости, которая в нас живет? Это пример пути человека, который был подонком, но захотел исправиться.
    - ||
    Внимание: присутствует ненормативная лексика11

    участник фестиваля
    2O16 года

    -
    Тип релиза: BDRip 720p (рип от NCmt)
    Контейнер: MKV
    Видео: AVC (x264), 1280x534 (2.40:1) at 24,000 fps, 5033 Кbps
    Аудио 1: AC3; 640 Kbps; CBR; 6 ch; 48 khz | MVO |
    Аудио 2: AC3; 640 Kbps; CBR; 6 ch; 48 khz | Французский |
    Формат субтитров: softsub (SRT)
    Скриншоты || x264 Info || MediaInfo || Notes

    MediaInfo

    General
    Unique ID                                : 247842563979030784991285818121336723476 (0xBA74BDD5F6F7A30480286BC2C4C11814)
    Complete name                            : Француз.2015.MVO.720p.BluRay.x264-NCmt.mkv
    Format                                   : Matroska
    Format version                           : Version 4 / Version 2
    File size                                : 4.37 GiB
    Duration                                 : 1h 37mn
    Overall bit rate                         : 6 442 Kbps
    Movie name                               : French Blood [2015] [720p] MVO
    Encoded date                             : UTC 2016-02-26 08:16:19
    Writing application                      : mkvmerge v7.8.0 ('River Man') 32bit built on Mar 27 2015 16:18:02
    Writing library                          : libebml v1.3.1 + libmatroska v1.4.2
    Video
    ID                                       : 1
    Format                                   : AVC
    Format/Info                              : Advanced Video Codec
    Format profile                           : High@L4.1
    Format settings, CABAC                   : Yes
    Format settings, ReFrames                : 12 frames
    Codec ID                                 : V_MPEG4/ISO/AVC
    Duration                                 : 1h 37mn
    Bit rate                                 : 5 033 Kbps
    Width                                    : 1 280 pixels
    Height                                   : 534 pixels
    Display aspect ratio                     : 2.40:1
    Frame rate mode                          : Constant
    Frame rate                               : 24.000 fps
    Color space                              : YUV
    Chroma subsampling                       : 4:2:0
    Bit depth                                : 8 bits
    Scan type                                : Progressive
    Bits/(Pixel*Frame)                       : 0.307
    Stream size                              : 3.42 GiB (78%)
    Title                                    : profile.php?mode=viewprofile&u=22488948
    Writing library                          : x264 core 148 r2665 a01e339
    Encoding settings                        : cabac=1 / ref=12 / deblock=1:-3:-3 / analyse=0x3:0x133 / me=umh / subme=11 / psy=1 / psy_rd=1.00:0.00 / mixed_ref=1 / me_range=32 / chroma_me=1 / trellis=2 / 8x8dct=1 / cqm=0 / deadzone=21,11 / fast_pskip=0 / chroma_qp_offset=-2 / threads=6 / lookahead_threads=1 / sliced_threads=0 / nr=0 / decimate=0 / interlaced=0 / bluray_compat=0 / constrained_intra=0 / bframes=6 / b_pyramid=2 / b_adapt=2 / b_bias=0 / direct=3 / weightb=1 / open_gop=0 / weightp=2 / keyint=250 / keyint_min=24 / scenecut=40 / intra_refresh=0 / rc_lookahead=60 / rc=crf / mbtree=0 / crf=16.0 / qcomp=0.64 / qpmin=0 / qpmax=69 / qpstep=4 / vbv_maxrate=38000 / vbv_bufsize=30000 / crf_max=0.0 / nal_hrd=none / filler=0 / ip_ratio=1.40 / pb_ratio=1.23 / aq=2:0.76
    Language                                 : French
    Default                                  : Yes
    Forced                                   : No
    Audio #1
    ID                                       : 2
    Format                                   : AC-3
    Format/Info                              : Audio Coding 3
    Mode extension                           : CM (complete main)
    Format settings, Endianness              : Big
    Codec ID                                 : A_AC3
    Duration                                 : 1h 37mn
    Bit rate mode                            : Constant
    Bit rate                                 : 640 Kbps
    Channel(s)                               : 6 channels
    Channel positions                        : Front: L C R, Side: L R, LFE
    Sampling rate                            : 48.0 KHz
    Bit depth                                : 16 bits
    Compression mode                         : Lossy
    Stream size                              : 445 MiB (10%)
    Title                                    : MVO [Paradox & Omskbird records]
    Language                                 : Russian
    Default                                  : Yes
    Forced                                   : No
    Audio #2
    ID                                       : 3
    Format                                   : AC-3
    Format/Info                              : Audio Coding 3
    Mode extension                           : CM (complete main)
    Format settings, Endianness              : Big
    Codec ID                                 : A_AC3
    Duration                                 : 1h 37mn
    Bit rate mode                            : Constant
    Bit rate                                 : 640 Kbps
    Channel(s)                               : 6 channels
    Channel positions                        : Front: L C R, Side: L R, LFE
    Sampling rate                            : 48.0 KHz
    Bit depth                                : 16 bits
    Compression mode                         : Lossy
    Stream size                              : 445 MiB (10%)
    Language                                 : French
    Default                                  : No
    Forced                                   : No
    Text #1
    ID                                       : 4
    Format                                   : UTF-8
    Codec ID                                 : S_TEXT/UTF8
    Codec ID/Info                            : UTF-8 Plain Text
    Language                                 : Russian
    Default                                  : No
    Forced                                   : No
    Text #2
    ID                                       : 5
    Format                                   : UTF-8
    Codec ID                                 : S_TEXT/UTF8
    Codec ID/Info                            : UTF-8 Plain Text
    Language                                 : English
    Default                                  : No
    Forced                                   : No
    Text #3
    ID                                       : 6
    Format                                   : UTF-8
    Codec ID                                 : S_TEXT/UTF8
    Codec ID/Info                            : UTF-8 Plain Text
    Language                                 : French
    Default                                  : No
    Forced                                   : No
    Text #4
    ID                                       : 7
    Format                                   : UTF-8
    Codec ID                                 : S_TEXT/UTF8
    Codec ID/Info                            : UTF-8 Plain Text
    Language                                 : German
    Default                                  : No
    Forced                                   : No
    Menu
    00:00:00.000                             : en:Chapter 01
    00:10:00.000                             : en:Chapter 02
    00:20:00.000                             : en:Chapter 03
    00:30:00.000                             : en:Chapter 04
    00:40:00.000                             : en:Chapter 05
    00:50:00.000                             : en:Chapter 06
    01:00:00.000                             : en:Chapter 07
    01:10:00.000                             : en:Chapter 08
    01:20:00.000                             : en:Chapter 09
    01:30:00.000                             : en:Chapter 10

    Source vs Encode

    Source...........Encode

    Цитата: За русскую аудио дорожку, спасибки: nirman
    -
    Студия "Paradox & Omskbird records" - роли озвучивали: Павел Ярощик, Константин Погодаев, Андрей Астров, Ольга Федорова
    Скачать .torrent

    Скачать торрент-файл бесплатно и на максимальной скорости!

    Как скачивать? · Что такое торрент? · Рейтинг и ограничения

    !ВНИМАНИЕ!
    Сайт не распространяет и не хранит электронные версии произведений, а занимается лишь лишь предоставлением доступа к создаваемому пользователями каталогу ссылок на торрент-файлы, которые содержат только списки хеш-сумм, убедительная просьба с жалобами обращаться напрямую к пользователю. Файлы для обмена на трекере предоставлены пользователями сайта, и администрация не несёт ответственности за их содержание. Просьба не заливать файлы, защищенные авторскими правами, а также файлы нелегального содержания!


    _________________
    [Профиль] [ЛС]
    Показать сообщения:    
    Ответить на тему

    Текущее время: Сегодня, в 08:48

    Часовой пояс: GMT + 2



    Вы не можете начинать темы
    Вы не можете отвечать на сообщения
    Вы не можете редактировать свои сообщения
    Вы не можете удалять свои сообщения
    Вы не можете голосовать в опросах
    Вы не можете прикреплять файлы к сообщениям
    Вы не можете скачивать файлы