BitTorrentTracker PerecTracker.org
BitTorrentTracker PerecTracker.org
    
Регистрация  ·  Вход
 
 · 
Забыли пароль?

  • Освободите соски / Free the Nipple (Лина Эско / Lina Esco) [2014, США, комедия, драма, BDRip] VO (Вадим Назаров)

    Ответить на тему
     
    Автор Сообщение

    rechyn

    Создавать темы 28-Фев-2016 21:42

           

    [Цитировать]

    Освободите соски / Free the Nipple
    Страна: США
    Студия: Bethsabée Mucho, Disruptive Films, Emotion Pictures
    Жанр: Комедия, драма
    Год выпуска: 2014
    Продолжительность: 01:18:52
    Перевод: Одноголосый (закадровый) Вадим Назаров
    Cубтитры: нет
    Оригинальная аудиодорожка: Английский
    Режиссер: Лина Эско / Lina Esco
    В ролях: Лина Эско, Лола Кёрк, Кэйси ЛаБоу, Моника Коулмэн, Гриффин Ньюман, Зэк Гренье, Джен Понтон, Сарабет Строллер, Джанин Гарофало, Джон Китинг
    Описание: Free the Nipple — название фильма и международное движение за права женщин. Сегодня открывать грудь - в том числе для того, чтобы покормить младенца, - запрещено в 35 американских штатах. В Луизиане открытый сосок может привести к тюремному заключению на срок до трех лет и штрафу в размере 2500 долларов. Даже в Нью-Йорке, где в 1992 году хождение топлес было легализовано, полиция продолжает арестовывать женщин, утверждается на сайте движения. Движение борется «с неравенством посредством фильма, социальных сетей и кампаний на местах».
    Дополнительная информация:
    Автор релиза - ylnian
    Заказ и выкуп голоса Вадима Назарова (перевод - февраль 2016 г.) - ylnian
    За наложение чистого голоса и сборку дороги спасибо rammzez
    Источник для рипа - BluRay (GER) - Free.the.Nipple.2014.DUAL.COMPLETE.BLURAY-MOViEiT


    Сэмпл: https://yadi.sk/i/P_p8qeNKpc5vC
    Качество видео: BDRip
    Формат видео: AVI
    Видео: XviD, 720x304 (2,35:1), 23.976 fps, 1748 kbps, 0.333 bit/pixel
    Аудио 1: Русский AC3, 48000 Гц, 6ch, 448 kbps - VO
    Аудио 2: Английский AC3, 48000 Гц, 6ch, 448 kbps

    MediaInfo

    Общее
    Полное имя : E:\Free.the.Nipple.2014.BDRip-ylnian.avi
    Формат : AVI
    Формат/Информация : Audio Video Interleave
    Размер файла : 1,46 Гбайт
    Продолжительность : 1 ч. 18 м.
    Общий поток : 2658 Кбит/сек
    Программа кодирования : VirtualDubMod 1.5.10.2 (build 2540/release)
    Библиотека кодирования : VirtualDubMod build 2540/release
    Видео
    Идентификатор : 0
    Формат : MPEG-4 Visual
    Профиль формата : Advanced Simple@L5
    Параметр BVOP формата : 1
    Параметр QPel формата : Нет
    Параметр GMC формата : Без точки перехода
    Параметр матрицы формата : Default (MPEG)
    Идентификатор кодека : XVID
    Идентификатор кодека/Подсказка : XviD
    Продолжительность : 1 ч. 18 м.
    Битрейт : 1748 Кбит/сек
    Ширина : 720 пикселей
    Высота : 304 пикселя
    Соотношение сторон : 2,35:1
    Частота кадров : 23,976 (24000/1001) кадра/сек
    Цветовое пространство : YUV
    Субдискретизация насыщенности : 4:2:0
    Битовая глубина : 8 бит
    Тип развёртки : Прогрессивная
    Метод сжатия : С потерями
    Бит/(Пиксели*Кадры) : 0.333
    Размер потока : 986 Мбайт (66%)
    Библиотека кодирования : XviD 67
    Аудио #1
    Идентификатор : 1
    Формат : AC-3
    Формат/Информация : Audio Coding 3
    Расширение режима : CM (complete main)
    Параметр Endianness формата : Big
    Идентификатор кодека : 2000
    Продолжительность : 1 ч. 18 м.
    Вид битрейта : Постоянный
    Битрейт : 448 Кбит/сек
    Каналы : 6 каналов
    Расположение каналов : Front: L C R, Side: L R, LFE
    Частота : 48,0 КГц
    Частота кадров : 31,250 кадров/сек (1536 spf)
    Метод сжатия : С потерями
    Размер потока : 253 Мбайт (17%)
    Выравнивание : Разделение по промежуткам
    Продолжительность промежутка : 42 мс. (1,00 видеокадр)
    Время предзагрузки промежутка : 500 мс.
    Аудио #2
    Идентификатор : 2
    Формат : AC-3
    Формат/Информация : Audio Coding 3
    Расширение режима : CM (complete main)
    Параметр Endianness формата : Big
    Идентификатор кодека : 2000
    Продолжительность : 1 ч. 18 м.
    Вид битрейта : Постоянный
    Битрейт : 448 Кбит/сек
    Каналы : 6 каналов
    Расположение каналов : Front: L C R, Side: L R, LFE
    Частота : 48,0 КГц
    Частота кадров : 31,250 кадров/сек (1536 spf)
    Метод сжатия : С потерями
    Размер потока : 253 Мбайт (17%)
    Выравнивание : Разделение по промежуткам
    Продолжительность промежутка : 42 мс. (1,00 видеокадр)
    Время предзагрузки промежутка : 500 мс.

    Скриншот c названием фильма

    Скриншоты

    Скачать .torrent

    Скачать торрент-файл бесплатно и на максимальной скорости!

    Как скачивать? · Что такое торрент? · Рейтинг и ограничения

    !ВНИМАНИЕ!
    Сайт не распространяет и не хранит электронные версии произведений, а занимается лишь лишь предоставлением доступа к создаваемому пользователями каталогу ссылок на торрент-файлы, которые содержат только списки хеш-сумм, убедительная просьба с жалобами обращаться напрямую к пользователю. Файлы для обмена на трекере предоставлены пользователями сайта, и администрация не несёт ответственности за их содержание. Просьба не заливать файлы, защищенные авторскими правами, а также файлы нелегального содержания!


    _________________
    [Профиль] [ЛС]
    Показать сообщения:    
    Ответить на тему

    Текущее время: Сегодня, в 22:24

    Часовой пояс: GMT + 2



    Вы не можете начинать темы
    Вы не можете отвечать на сообщения
    Вы не можете редактировать свои сообщения
    Вы не можете удалять свои сообщения
    Вы не можете голосовать в опросах
    Вы не можете прикреплять файлы к сообщениям
    Вы не можете скачивать файлы