BitTorrentTracker PerecTracker.org
BitTorrentTracker PerecTracker.org
    
Регистрация  ·  Вход
 
 · 
Забыли пароль?

  • Лучше звоните Солу / Better Call Saul / Сезон: 2 / Серии: 1-2 (10) (Адам Бернштейн, Лариса Кондрацки, Томас Шнауз) [2016, США, драма, криминал, WEB-DL, HD (1080p)] 2xMVO (Kravec Records, LostFilm) + Original + Sub (rus, eng)

    Ответить на тему
     
    Автор Сообщение

    rechyn

    Создавать темы 28-Фев-2016 21:28

           

    [Цитировать]

    Лучше звоните Солу / Better Call Saul
    Год выпуска: 2016
    Страна: США
    Жанр: драма, криминал
    Продолжительность серии: 50 мин
    Рейтинг TV Parental Guidelines: TV-MA
    Рейтинг КиноПоиск: 8.145
    Рейтинг IMDb: 8.8
    Перевод: Профессиональный (многоголосый закадровый) Студия озвучания: Kravec Records , LostFilm
    Оригинальная аудиодорожка: есть
    Cубтитры: английские, русские
    Режиссёр: Адам Бернштейн, Лариса Кондрацки, Томас Шнауз
    Сценарий: Винс Гиллиган, Питер Гулд, Томас Шнауз
    Продюссер: Мелисса Бернштейн, Винс Гиллиган, Питер Гулд
    В ролях: Боб Оденкёрк, Джонатан Бэнкс, Ри Сихорн, Майкл МакКин, Патрик Фабиан, Майкл Мэндо, Стив Ларесэ, Джули Энн Эмери, Керри Кондон, Джереми Шамос
    Сезон: 2
    Серии: 1-2
    Описание:
    История об испытаниях и невзгодах, которые приходится преодолеть Солу Гудману, адвокату по уголовным делам, в тот период, когда он пытается открыть свою собственную адвокатскую контору в Альбукерке, штат Нью-Мексико.
    Качество исходника: WEB-DL 1080p
    Качество: WEB-DL
    Разрешение: 1080p
    Формат: M4V-Серия 1-2:
    Видео: 1920x1080 at 23.976 fps, MPEG-4 AVC, ~5000 kbps avg
    Аудио №1: 48 kHz, ААС, 2/0 (L,R), ~192.00 kbps avg - Студия озвучания: Kravec Records
    Аудио №2: 48 kHz, AC3, 3/2 (L,C,R,l,r) + LFE ch, 384.00 kbps avg - Студия озвучания: Kravec Records
    Аудио №3: 48 kHz, ААС, 2/0 (L,R), ~192.00 kbps avg - Студия озвучания: LostFilm
    Аудио №4: 48 kHz, AC3, 3/2 (L,C,R,l,r) + LFE ch, 384.00 kbps avg - Студия озвучания: LostFilm
    Аудио №5: 48 kHz, ААС, 2/0 (L,R), ~192.00 kbps avg - Original
    Аудио №6: 48 kHz, AC3, 3/2 (L,C,R,l,r) + LFE ch, 384.00 kbps avg - Original
    Субтитры №1: English - CC
    Субтитры №2: Russian - Amedia-

    Список эпизодов:

    1. Switch / Выключатель (15.02.2016)

    Jimmy entertains a lucrative job offer. Mike decides it’s for the best to sever his affiliation with an unrestrained associate. Jimmy and Kim's relationship takes a new turn when they share drinks with a stranger.

    2. Cobbler / Пирог (22.02.2016)

    To keep a potentially messy situation from unraveling, Mike brokers a deal. Jimmy works to exonerate an eccentric client.

    3. Amarillo / (29.02.2016)

    Jimmy's client outreach efforts succeed, and he exhibits new heights of showmanship; Mike is puzzled by Stacey's upsetting news.

    iTunes Meta Tags

    Sort Album: Better Call Saul, Season 2
    Sort Artist: Better Call Saul
    Sort Name: Switch
    iTunes Country: 143441
    XID: sonypicturesentertainment:vendor_id:SONY_BETTER_CALL_SAUL_201
    genreID: 4001
    playlistID: 1064708613
    artistID: 941931469
    contentID: 10214304
    Copyright: © (C) 2015 Sony Pictures Television Inc. All Rights Reserved.
    Rating: 19
    Series Description: Season one found Jimmy stumble upon a large class-action lawsuit, which led to a promising job opportunity at a large firm. Having arrived at a fork in the road, will Jimmy take the straight and narrow path with a safe corporate job or will he fall back into his “Slippin’ Jimmy” con-artist ways?
    Long Description: Jimmy entertains a lucrative job offer. Mike decides it’s for the best to sever his affiliation with an unrestrained associate. Jimmy and Kim's relationship takes a new turn when they share drinks with a stranger.
    Description: Jimmy entertains a lucrative job offer. Mike decides it’s for the best to sever his affiliation with
    TV Season: 2
    TV Episode ID: 201
    TV Episode #: 1
    TV Show: Better Call Saul
    Disk #: 1/1
    Track #: 1/0
    Release Date: 2016-02-15T08:00:00Z
    Genre: Drama
    Album: Better Call Saul, Season 2
    Album Artist: Better Call Saul
    Artist: Better Call Saul
    Name: Switch

    MediaInfo

    Общее
    Полное имя : 01 Switch (1080p HD).m4v
    Формат : MPEG-4
    Профиль формата : Apple audio with iTunes info
    Идентификатор кодека : M4A
    Размер файла : 2,26 Гбайт
    Продолжительность : 46 м.
    Режим общего битрейта : Переменный
    Общий поток : 6886 Кбит/сек
    Коллекция : Better Call Saul
    Сезон : 2
    Альбом : Better Call Saul, Season 2
    Альбом/Сортировать по : Better Call Saul, Season 2
    Альбом/Исполнитель : Better Call Saul
    Часть : 1
    Часть/Положение : 1
    Часть/Всего : 1
    Трек : Switch
    Трек/Положение : 1
    Исполнитель : Better Call Saul
    Исполнитель/Сортировать по : Better Call Saul
    Жанр : Drama
    Тип содержимого : TV Show
    Описание : Jimmy entertains a lucrative job offer. Mike decides it’s for the best to sever his affiliation with / Season one found Jimmy stumble upon a large class-action lawsuit, which led to a promising job opportunity at a large firm. Having arrived at a fork in the road, will Jimmy take the straight and narrow path with a safe corporate job or will he fall back into his “Slippin’ Jimmy” con-artist ways?
    Дата записи : UTC 2016-02-15 08:00:00
    Дата кодирования : UTC 2016-02-24 09:02:28
    Дата пометки : UTC 2016-02-24 09:05:41
    Правообладатель : © (C) 2015 Sony Pictures Television Inc. All Rights Reserved.
    Обложка : Yes
    Рейтинг : None
    Part_ID : 201
    Title/Sort : Switch
    LongDescription : Jimmy entertains a lucrative job offer. Mike decides it’s for the best to sever his affiliation with an unrestrained associate. Jimmy and Kim's relationship takes a new turn when they share drinks with a stranger.
    AppleStoreCountry : United States
    AppleStoreCatalogID : 10214304
    AlbumTitleID : 941931469
    PlayListID : 1064708613
    GenreID : 4001
    Vendor : sonypicturesentertainment:vendor_id:SONY_BETTER_CALL_SAUL_201
    ContentRating : us-tv|TV-MA|600|
    Видео
    Идентификатор : 1
    Формат : AVC
    Формат/Информация : Advanced Video Codec
    Профиль формата : High@L4.0
    Параметр CABAC формата : Да
    Параметр ReFrames формата : 4 кадра
    Идентификатор кодека : avc1
    Идентификатор кодека/Информация : Advanced Video Coding
    Продолжительность : 46 м.
    Битрейт : 5180 Кбит/сек
    Ширина : 1916 пикселей
    Высота : 1076 пикселей
    Соотношение сторон : 16:9
    Режим частоты кадров : Переменный
    Частота кадров : 23,976 кадра/сек
    Минимальная частота кадров : 23,810 кадра/сек
    Максимальная частота кадров : 24,390 кадра/сек
    Цветовое пространство : YUV
    Субдискретизация насыщенности : 4:2:0
    Битовая глубина : 8 бит
    Тип развёртки : Прогрессивная
    Бит/(Пиксели*Кадры) : 0.105
    Размер потока : 1,70 Гбайт (75%)
    Язык : English
    Дата кодирования : UTC 2016-02-24 09:04:32
    Дата пометки : UTC 2016-02-24 09:05:40
    Основные цвета : BT.709
    Характеристики трансфера : BT.709
    Коэффициенты матрицы : BT.709
    Аудио #1
    Идентификатор : 2
    Формат : AAC
    Формат/Информация : Advanced Audio Codec
    Профиль формата : LC
    Идентификатор кодека : 40
    Продолжительность : 46 м.
    Вид битрейта : Переменный
    Битрейт : 173 Кбит/сек
    Максимальный битрейт : 267 Кбит/сек
    Каналы : 2 канала
    Расположение каналов : Front: L R
    Частота : 48,0 КГц
    Метод сжатия : С потерями
    Размер потока : 57,9 Мбайт (3%)
    Язык : Russian
    Дата кодирования : UTC 2016-02-24 09:02:28
    Дата пометки : UTC 2016-02-24 09:02:29
    Аудио #2
    Идентификатор : 3
    Формат : AC-3
    Формат/Информация : Audio Coding 3
    Расширение режима : CM (complete main)
    Параметр Endianness формата : Big
    Идентификатор кодека : ac-3
    Продолжительность : 46 м.
    Вид битрейта : Постоянный
    Битрейт : 384 Кбит/сек
    Каналы : 6 каналов
    Расположение каналов : Front: L C R, Side: L R, LFE
    Частота : 48,0 КГц
    Битовая глубина : 16 бит
    Метод сжатия : С потерями
    Размер потока : 129 Мбайт (6%)
    Язык : Russian
    Дата кодирования : UTC 2016-02-24 09:04:32
    Дата пометки : UTC 2016-02-24 09:05:40
    Аудио #3
    Идентификатор : 4
    Формат : AAC
    Формат/Информация : Advanced Audio Codec
    Профиль формата : LC
    Идентификатор кодека : 40
    Продолжительность : 46 м.
    Продолжительность оригинала : 46 м.
    Вид битрейта : Переменный
    Номинальный битрейт : 192 Кбит/сек
    Максимальный битрейт : 326 Кбит/сек
    Каналы : 2 канала
    Channel(s)_Original : 6 каналов
    Расположение каналов : Front: L C R, Side: L R, LFE
    Частота : 48,0 КГц
    Метод сжатия : С потерями
    Размер потока оригинала : 63,8 Мбайт (3%)
    Язык : Russian
    Дата кодирования : UTC 2016-02-24 09:04:32
    Дата пометки : UTC 2016-02-24 09:05:40
    Аудио #4
    Идентификатор : 5
    Формат : AC-3
    Формат/Информация : Audio Coding 3
    Расширение режима : CM (complete main)
    Параметр Endianness формата : Big
    Идентификатор кодека : ac-3
    Продолжительность : 46 м.
    Вид битрейта : Постоянный
    Битрейт : 384 Кбит/сек
    Каналы : 6 каналов
    Расположение каналов : Front: L C R, Side: L R, LFE
    Частота : 48,0 КГц
    Битовая глубина : 16 бит
    Метод сжатия : С потерями
    Размер потока : 129 Мбайт (6%)
    Язык : Russian
    Дата кодирования : UTC 2016-02-24 09:04:32
    Дата пометки : UTC 2016-02-24 09:05:40
    Аудио #5
    Идентификатор : 6
    Формат : AAC
    Формат/Информация : Advanced Audio Codec
    Профиль формата : LC
    Идентификатор кодека : 40
    Продолжительность : 46 м.
    Продолжительность оригинала : 46 м.
    Вид битрейта : Переменный
    Номинальный битрейт : 181 Кбит/сек
    Максимальный битрейт : 288 Кбит/сек
    Каналы : 2 канала
    Расположение каналов : Front: L R
    Частота : 48,0 КГц
    Метод сжатия : С потерями
    Размер потока оригинала : 60,7 Мбайт (3%)
    Язык : English
    Дата кодирования : UTC 2016-02-24 09:04:32
    Дата пометки : UTC 2016-02-24 09:05:40
    Аудио #6
    Идентификатор : 7
    Формат : AC-3
    Формат/Информация : Audio Coding 3
    Расширение режима : CM (complete main)
    Параметр Endianness формата : Big
    Идентификатор кодека : ac-3
    Продолжительность : 46 м.
    Вид битрейта : Постоянный
    Битрейт : 384 Кбит/сек
    Каналы : 6 каналов
    Расположение каналов : Front: L C R, Side: L R, LFE
    Частота : 48,0 КГц
    Битовая глубина : 16 бит
    Метод сжатия : С потерями
    Размер потока : 129 Мбайт (6%)
    Язык : English
    Дата кодирования : UTC 2016-02-24 09:04:32
    Дата пометки : UTC 2016-02-24 09:05:40
    Текст #1
    Идентификатор : 8
    Формат : Timed Text
    Режим смешивания : sbtl
    Идентификатор кодека : tx3g
    Продолжительность : 45 м.
    Вид битрейта : Переменный
    Битрейт : 100 бит/сек
    Размер потока : 33,3 Кбайт (0%)
    Язык : Russian
    Дата кодирования : UTC 2016-02-24 09:04:32
    Дата пометки : UTC 2016-02-24 09:05:40
    Текст #2
    Идентификатор : 9
    Формат : Timed Text
    Режим смешивания : sbtl
    Идентификатор кодека : tx3g
    Продолжительность : 45 м.
    Вид битрейта : Переменный
    Битрейт : 72 бит/сек
    Размер потока : 24,4 Кбайт (0%)
    Язык : English
    Дата кодирования : UTC 2016-02-24 09:04:32
    Дата пометки : UTC 2016-02-24 09:05:40

    Скриншоты

    -
    Релиз подготовлен для просмотра на Apple TV, iPad, iPhone, iPod Touch.
    Для просмотра данного релиза на компьютере с ОС Windows рекомендуется использовать VLC media player
    Скачать .torrent

    Скачать торрент-файл бесплатно и на максимальной скорости!

    Как скачивать? · Что такое торрент? · Рейтинг и ограничения

    !ВНИМАНИЕ!
    Сайт не распространяет и не хранит электронные версии произведений, а занимается лишь лишь предоставлением доступа к создаваемому пользователями каталогу ссылок на торрент-файлы, которые содержат только списки хеш-сумм, убедительная просьба с жалобами обращаться напрямую к пользователю. Файлы для обмена на трекере предоставлены пользователями сайта, и администрация не несёт ответственности за их содержание. Просьба не заливать файлы, защищенные авторскими правами, а также файлы нелегального содержания!


    _________________
    [Профиль] [ЛС]
    Показать сообщения:    
    Ответить на тему

    Текущее время: Сегодня, в 10:42

    Часовой пояс: GMT + 2



    Вы не можете начинать темы
    Вы не можете отвечать на сообщения
    Вы не можете редактировать свои сообщения
    Вы не можете удалять свои сообщения
    Вы не можете голосовать в опросах
    Вы не можете прикреплять файлы к сообщениям
    Вы не можете скачивать файлы