BitTorrentTracker PerecTracker.org
BitTorrentTracker PerecTracker.org
    
Регистрация  ·  Вход
 
 · 
Забыли пароль?

  • Американская история ужасов / American Horror Story [Сезон 4] (Альфонсо Гомез-Рейон, Брэдли Букер, Майкл Аппендаль) [2014-2015 г., США, ужасы, триллер, драма, WEB-DL HD (720p)] MVO, DVO, Original + SUB (rus, eng)

    Ответить на тему
     
    Автор Сообщение

    rechyn

    Создавать темы 28-Фев-2016 20:49

           

    [Цитировать]

    Американская история ужасов / American Horror Story
    "Get committed"
    -Год выпуска: 2011, (5 сезонов)
    Страна: США
    Жанр: ужасы, триллер, драма
    Продолжительность серии: 43 мин.
    Перевод: Многоголосый закадровый перевод, двухголосый закадровый перевод
    Оригинальная аудиодорожка: Есть
    Cубтитры: Русские форсированные, русские полные и английские полные SDH
    Режиссёр: Альфонсо Гомез-Рейон, Брэдли Букер, Майкл Аппендаль
    Сценарий: Брэд Фалчук, Райан Мерфи, Дженнифер Солт
    Продюсер: Брэдли Букер, Брэд Фалчук, Райан Мерфи
    Оператор: Майкл Гои, Джон Б. Аронсон, Том Хотон
    Композитор: Джеймс С. Левайн, Мак Квейл
    Художник: Марк Вортингтон, Бет А. Рубино, Эндрю Мёрдок
    Монтаж: Фабьенн Бувилль, Адам Пенн, Стюарт Шилл
    В ролях: Эван Питерс, Джессика Лэнг, Сара Полсон, Фрэнсис Конрой, Дэнис О’Хэйр, Лили Рэйб, Эмма Робертс, Кэти Бейтс, Таисса Фармига, Анджела Бассетт
    Мировая премьера: 5 октября 2011-Описание: Сюжет четвёртого сезона вращается вокруг одного из последних «Цирков уродов» в 1950-х годах.
    Флорида, 1950-е. Управляющая последним паноптикумом в стране собирается закрыть свое шоу. Но артисты-фрики не рады досрочной пенсии. Они сделают что угодно, чтобы жуткий цирк продолжал существовать.-Качество исходника: WEB-DL 720p (HDClub)
    Качество: WEB-DL
    Тип: 720p
    Контейнер: m4v
    Видео: 1280x720 at 23.976 fps, MPEG-4 AVC, ~4000 kbps avg
    Аудио#1: Russian: 48 kHz, ААС, 2/0 (L,R), ~160.00 kbps avg |Многоголосый закадровый, Amedia (NovaMedia)|
    Аудио#2: Russian: 48 kHz, ААС, 2/0 (L,R), ~160.00 kbps avg |Многоголосый закадровый, LostFilm|
    Аудио#3: Russian: 48 kHz, ААС, 2/0 (L,R), ~160.00 kbps avg |Многоголосый закадровый, NewStudio|
    Аудио#4: Russian: 48 kHz, ААС, 2/0 (L,R), ~160.00 kbps avg |Двухголосый закадровый, Кубик в Кубе|
    Аудио#5: Russian: 48 kHz, ААС, 2/0 (L,R), ~160.00 kbps avg |Многоголосый закадровый, BaibaKo|
    Аудио#6: English: 48 kHz, ААС, 2/0 (L,R), ~160.00 kbps avg
    Аудио#7: Russian: 48 kHz, AC3, 3/2 (L,C,R,l,r) + LFE ch, ~384.00 kbps avg |Многоголосый закадровый, Amedia (NovaMedia)|
    Аудио#8: Russian: 48 kHz, AC3, 3/2 (L,C,R,l,r) + LFE ch, ~384.00 kbps avg |Многоголосый закадровый, LostFilm|
    Аудио#9: Russian: 48 kHz, AC3, 3/2 (L,C,R,l,r) + LFE ch, ~384.00 kbps avg |Многоголосый закадровый, NewStudio|
    Аудио#10: Russian: 48 kHz, AC3, 3/2 (L,C,R,l,r) + LFE ch, ~384.00 kbps avg |Двухголосый закадровый, Кубик в Кубе|
    Аудио#11: Russian: 48 kHz, AC3, 3/2 (L,C,R,l,r) + LFE ch, ~384.00 kbps avg |Многоголосый закадровый, BaibaKo|
    Аудио#12: English: 48 kHz, AC3, 3/2 (L,C,R,l,r) + LFE ch, ~384.00 kbps avg
    Субтитры №1: Russian: |Форсированные, Amedia|
    Субтитры №2: Russian: |Полные, Amedia|
    Субтитры №3: English: |Полные, SDH|-Американская история ужасов, Сезон 4
    American Horror Story, Season 4
    Список эпизодов
    1. Монстры среди нас / Monsters Among Us (8 октября 2014)
    Один из последних оставшихся цирков пытается держаться на плаву, но его вытесняет телевидение. Но то, что полиция находит на одной из ферм, может стать шансом перерождения для цирка или обречет его на окончательный провал.
    One of the only surviving sideshows in the country struggles to stay in business during the dawning era of television. When police make a terrifying discovery at a local farmhouse, the eccentric purveyor of the freak show sees an opportunity that will lead her troupe either to their salvation or ruin.
    2. Резня и утренники / Massacres and Matinees (15 октября 2014)
    Цирк уродов находится под угрозой закрытия. Силач из прошлого Эсель прибывает на территорию цирка. Глория организовывает ужасающую встречу для Дэнди. Близнецы Таттлер открывают в себе талант, который затмит даже Эльзу.
    A citywide curfew threatens to shut down the Freak Show. A strongman from Ethel’s troubled past arrives at camp. Gloria arranges a terrifying play date for Dandy. The Tattler Twins reveal a talent that could knock Elsa from the spotlight.
    3. Эдвард Мордрейк: Часть 1 / Edward Mordrake: Part 1 (22 октября 2014)
    Фрики отказываются выступать на Хэллоуин — для циркачей это плохая примета. Джимми соблазнен девушкой, которая утверждает, что она ясновидящая. Эсель приносит новости, которые изменят всё.
    The Freaks refuse to perform on Halloween due to an old carny superstition. Jimmy is smitten by a woman claiming to be a fortuneteller. Ethel receives life-changing news.
    4. Эдвард Мордрейк: Часть 2 / Edward Mordrake: Part 2 (29 октября 2014)
    Эдвард Мордрейк продолжает поиски фрика, который мог бы присоединиться к кругу его призраков. Эльза рассказывает жуткую историю о своем прошлом в Германии. Джимми и Мэгги встречаются с клоуном.
    Edward Mordrake continues his search for a Freak to add to his ghostly coterie. Elsa tells the grisly story of her days in Germany. Jimmy and Maggie have a run-in with the Twisted Clown.
    5. Розовые кексы / Pink Cupcakes (5 ноября 2014)
    Стэнли и Мэгги придумывают план, как убить фриков. Глория прячет свидетельства ужасного нового хобби Денди. Оказывается, что Дезире не такая странная, как все думали.
    Stanley and Maggie hatch a plan to murder the Freaks. Gloria hides the evidence of Dandy's gruesome new hobby. A health scare reveals Desiree may not be the oddity she once thought.
    6. Яблочко / Bullseye (12 ноября 2014)
    У Эльзы появляется страшный новый план. Стэнли давит на Мэгги и заставляет ее убить Джимми. У Пола начинается секретный роман.
    Elsa unveils a dangerous new act. Stanley puts pressure on Maggie to murder Jimmy. Paul indulges in a secret romance.
    7. Проба сил / Test of Strength (19 ноября 2014)
    После очередного акта насилия Делла женщины фрик-шоу объединяются против него. Тем временем, странная встреча с Денди увеличивает подозрения Джимми насчет убийств клоуна.
    The women of the Freak Show rally against Dell after his latest act of violence. A strange encounter with Dandy raises Jimmy’s suspicion about the clown murders.
    8. Кровавая баня / Blood Bath (3 декабря 2014)
    Последние исчезновения, произошедшие неподалеку от лагеря, заставляют Этель подозревать Эльзу. Глория делает последнюю отчаянную попытку сдержать жажду крови Денди.
    Recent disappearances around camp raise Ethel’s suspicion of Elsa. Gloria makes a last ditch effort to contain Dandy’s bloodlust.
    9. Резня на вечеринке Таппервэр / Tupperware Party Massacre (10 декабря 2014)
    После трагической потери Джимми пытается заглушить свою боль выпивкой. Мэгги заставляет Денди действовать. Стенли и Эльза выслеживают близняшек.
    In the wake of a tragic loss, Jimmy sinks into a drunken despair. A reading from Maggie spurs Dandy to action. Stanley and Elsa track down the Twins.
    10. Сироты / Orphans (17 декабря 2014)
    Смерть фрика вызывает перелом в психике Пеппер. Эльза раскрывает истинную историю фрик-шоу. Дезире начинает подозревать Мэгги в чем-то неладном.
    The death of a Freak sparks troubling behavior in Pepper. Elsa reveals the history of the Freak Show. Desiree grows suspicious of Maggie.
    11. Магическое мышление / Magical Thinking (7 января 2015)
    Эльза готовится к переезду в Голливуд. Близнецы влюбляются в нового владельца. Делл планирует побег Джимми.
    Elsa prepares for her move to Hollywood. The Twins grow enamored with a traveling salesman. Dell plots Jimmy’s escape from police custody.
    12. Шоу талантов / Show Stoppers (14 января 2015)
    Дэнди доносит близнецам пугающие новости о Честере. Мэгги клянется, что докажет свою преданность Джимми. Фрики придумывают свой жесткий кодекс чести.
    Dandy gives the Twins troubling information about Chester. Maggie vows to prove her loyalty to Jimmy. The Freaks enforce their harsh code of justice.
    13. Выход на поклон / Curtain Call (21 января 2015)
    Фрики бунтуют против нового начальства. Дэнди готовится к своему первому выступлению. Эльза приезжает в Тинселтаун.
    The Freaks rebel against new management. Dandy prepares for his debut performance. Elsa arrives in Tinseltown.

    Технические данные сериала

    [font="Georgia

    Эпизод №1"]

    iTunes Meta Tags for country us

    Name: Monsters Among Us
    Artist: American Horror Story
    Album Artist: American Horror Story
    Album: American Horror Story: Freakshow, Season 4
    Genre: Drama
    Release Date: 2014-10-08T07:00:00Z
    Track #: 1/0
    Disk #: 1/1
    TV Show: American Horror Story
    TV Episode #: 1
    TV Episode ID: 1
    TV Season: 4
    Description: One of the only surviving sideshows in the country struggles to stay in business during the dawning era of television.
    Long Description: One of the only surviving sideshows in the country struggles to stay in business during the dawning era of television. When police make a terrifying discovery at a local farmhouse, the eccentric purveyor of the freak show sees an opportunity that will lead her troupe either to their salvation or ruin.
    Series Description: American Horror Story: Freak Show begins its tale in the sleepy hamlet of Jupiter, Florida in 1952. A troupe of curiosities has arrived, coinciding with the emergence of a dark entity that threatens the lives of townsfolk and freaks alike. This is the story of the performers and their desperate journey of survival amidst the dying world of the American carny experience.
    Rating: TV-MA
    Copyright: © 2014 Fox and its related entities.  All rights reserved.
    contentID: 926083220
    XID: Apple:vendor-id:2014-589167-401
    playlistID: 918558854
    artistID: 462971134
    genreID: 4001
    Sort Name: Monsters Among Us
    Sort Album: American Horror Story: Freakshow, Season 4
    Sort TV Show: American Horror Story

    MediaInfo

    General
    Complete name : 01 Monsters Among Us (HD).m4v
    Format : MPEG-4
    Codec ID : M4V
    File size : 3.34 GiB
    Duration : 1h 5mn
    Overall bit rate mode : Variable
    Overall bit rate : 7 344 Kbps
    Collection : American Horror Story
    Season : 4
    Album : American Horror Story: Freakshow, Season 4
    Album/Sorted by : American Horror Story: Freakshow, Season 4
    Album/Performer : American Horror Story
    Part : 1
    Part/Position : 1
    Part/Total : 1
    Track name : Monsters Among Us
    Track name/Position : 1
    Performer : American Horror Story
    Genre : Drama
    ContentType : TV Show
    Description : One of the only surviving sideshows in the country struggles to stay in business during the dawning era of television. / American Horror Story: Freak Show begins its tale in the sleepy hamlet of Jupiter, Florida in 1952. A troupe of curiosities has arrived, coinciding with the emergence of a dark entity that threatens the lives of townsfolk and freaks alike. This is the story of the performers and their desperate journey of survival amidst the dying world of the American carny experience.
    Recorded date : UTC 2014-10-08 07:00:00
    Encoded date : UTC 2015-10-20 10:26:17
    Tagged date : UTC 2015-10-20 10:32:08
    Copyright : © 2014 Fox and its related entities.  All rights reserved.
    Cover : Yes
    Rating : None
    Part_ID : 1
    Title/Sort : Monsters Among Us / American Horror Story
    LongDescription : One of the only surviving sideshows in the country struggles to stay in business during the dawning era of television. When police make a terrifying discovery at a local farmhouse, the eccentric purveyor of the freak show sees an opportunity that will lead her troupe either to their salvation or ruin.
    HDVideo : Yes
    AppleStoreCatalogID : 926083220
    AlbumTitleID : 462971134
    PlayListID : 918558854
    GenreID : 4001
    Vendor : Apple:vendor-id:2014-589167-401
    ContentRating : us-tv|TV-MA|600|
    Video
    ID : 1
    Format : AVC
    Format/Info : Advanced Video Codec
    Format profile : High@L3.1
    Format settings, CABAC : No
    Format settings, ReFrames : 2 frames
    Codec ID : avc1
    Codec ID/Info : Advanced Video Coding
    Duration : 1h 5mn
    Bit rate : 4 028 Kbps
    Width : 1 280 pixels
    Height : 720 pixels
    Display aspect ratio : 16:9
    Frame rate mode : Variable
    Frame rate : 23.976 fps
    Minimum frame rate : 23.810 fps
    Maximum frame rate : 24.390 fps
    Color space : YUV
    Chroma subsampling : 4:2:0
    Bit depth : 8 bits
    Scan type : Progressive
    Bits/(Pixel*Frame) : 0.182
    Stream size : 1.83 GiB (55%)
    Title : Main Program
    Language : English
    Encoded date : UTC 2015-10-20 10:26:17
    Tagged date : UTC 2015-10-20 10:30:01
    Color range : Limited
    Color primaries : BT.709
    Transfer characteristics : BT.709
    Matrix coefficients : BT.709
    Audio #1
    ID : 2
    Format : AAC
    Format/Info : Advanced Audio Codec
    Format profile : LC
    Codec ID : 40
    Duration : 1h 5mn
    Bit rate mode : Variable
    Bit rate : 165 Kbps
    Maximum bit rate : 232 Kbps
    Channel(s) : 2 channels
    Channel positions : Front: L R
    Sampling rate : 48.0 KHz
    Compression mode : Lossy
    Stream size : 76.6 MiB (2%)
    Title : Russian MVO Amedia (NovaMedia) Stereo
    Language : Russian
    Encoded date : UTC 2015-10-20 10:26:17
    Tagged date : UTC 2015-10-20 10:26:22
    Audio #2
    ID : 3
    Format : AAC
    Format/Info : Advanced Audio Codec
    Format profile : LC
    Codec ID : 40
    Duration : 1h 5mn
    Bit rate mode : Variable
    Bit rate : 165 Kbps
    Maximum bit rate : 241 Kbps
    Channel(s) : 2 channels
    Channel positions : Front: L R
    Sampling rate : 48.0 KHz
    Compression mode : Lossy
    Stream size : 76.7 MiB (2%)
    Title : Russian MVO LostFilm Stereo
    Language : Russian
    Encoded date : UTC 2015-10-20 10:26:17
    Tagged date : UTC 2015-10-20 10:26:22
    Audio #3
    ID : 4
    Format : AAC
    Format/Info : Advanced Audio Codec
    Format profile : LC
    Codec ID : 40
    Duration : 1h 5mn
    Bit rate mode : Variable
    Bit rate : 165 Kbps
    Maximum bit rate : 244 Kbps
    Channel(s) : 2 channels
    Channel positions : Front: L R
    Sampling rate : 48.0 KHz
    Compression mode : Lossy
    Stream size : 76.6 MiB (2%)
    Title : Russian MVO NewStudio Stereo
    Language : Russian
    Encoded date : UTC 2015-10-20 10:26:17
    Tagged date : UTC 2015-10-20 10:26:22
    Audio #4
    ID : 5
    Format : AAC
    Format/Info : Advanced Audio Codec
    Format profile : LC
    Codec ID : 40
    Duration : 1h 5mn
    Bit rate mode : Variable
    Bit rate : 165 Kbps
    Maximum bit rate : 243 Kbps
    Channel(s) : 2 channels
    Channel positions : Front: L R
    Sampling rate : 48.0 KHz
    Compression mode : Lossy
    Stream size : 76.6 MiB (2%)
    Title : Russian DVO Kubik v Kube Stereo
    Language : Russian
    Encoded date : UTC 2015-10-20 10:26:17
    Tagged date : UTC 2015-10-20 10:26:22
    Audio #5
    ID : 6
    Format : AAC
    Format/Info : Advanced Audio Codec
    Format profile : LC
    Codec ID : 40
    Duration : 1h 5mn
    Bit rate mode : Variable
    Bit rate : 165 Kbps
    Maximum bit rate : 266 Kbps
    Channel(s) : 2 channels
    Channel positions : Front: L R
    Sampling rate : 48.0 KHz
    Compression mode : Lossy
    Stream size : 76.7 MiB (2%)
    Title : Russian MVO BaibaKo Stereo
    Language : Russian
    Encoded date : UTC 2015-10-20 10:26:17
    Tagged date : UTC 2015-10-20 10:26:22
    Audio #6
    ID : 7
    Format : AAC
    Format/Info : Advanced Audio Codec
    Format profile : LC
    Codec ID : 40
    Duration : 1h 5mn
    Bit rate mode : Variable
    Bit rate : 165 Kbps
    Maximum bit rate : 242 Kbps
    Channel(s) : 2 channels
    Channel positions : Front: L R
    Sampling rate : 48.0 KHz
    Compression mode : Lossy
    Stream size : 76.6 MiB (2%)
    Title : English Stereo
    Language : English
    Encoded date : UTC 2015-10-20 10:26:17
    Tagged date : UTC 2015-10-20 10:26:22
    Audio #7
    ID : 8
    Format : AC-3
    Format/Info : Audio Coding 3
    Mode extension : CM (complete main)
    Format settings, Endianness : Big
    Codec ID : ac-3
    Duration : 1h 5mn
    Bit rate mode : Constant
    Bit rate : 384 Kbps
    Channel(s) : 6 channels
    Channel positions : Front: L C R, Side: L R, LFE
    Sampling rate : 48.0 KHz
    Bit depth : 16 bits
    Compression mode : Lossy
    Stream size : 179 MiB (5%)
    Title : Russian MVO Amedia (NovaMedia) DD 5.1
    Language : Russian
    Encoded date : UTC 2015-10-20 10:26:17
    Tagged date : UTC 2015-10-20 10:30:01
    Audio #8
    ID : 9
    Format : AC-3
    Format/Info : Audio Coding 3
    Mode extension : CM (complete main)
    Format settings, Endianness : Big
    Codec ID : ac-3
    Duration : 1h 5mn
    Bit rate mode : Constant
    Bit rate : 384 Kbps
    Channel(s) : 6 channels
    Channel positions : Front: L C R, Side: L R, LFE
    Sampling rate : 48.0 KHz
    Bit depth : 16 bits
    Compression mode : Lossy
    Stream size : 179 MiB (5%)
    Title : Russian MVO LostFilm DD 5.1
    Language : Russian
    Encoded date : UTC 2015-10-20 10:26:17
    Tagged date : UTC 2015-10-20 10:30:01
    Audio #9
    ID : 10
    Format : AC-3
    Format/Info : Audio Coding 3
    Mode extension : CM (complete main)
    Format settings, Endianness : Big
    Codec ID : ac-3
    Duration : 1h 5mn
    Bit rate mode : Constant
    Bit rate : 384 Kbps
    Channel(s) : 6 channels
    Channel positions : Front: L C R, Side: L R, LFE
    Sampling rate : 48.0 KHz
    Bit depth : 16 bits
    Compression mode : Lossy
    Stream size : 179 MiB (5%)
    Title : Russian MVO NewStudio DD 5.1
    Language : Russian
    Encoded date : UTC 2015-10-20 10:26:17
    Tagged date : UTC 2015-10-20 10:30:01
    Audio #10
    ID : 11
    Format : AC-3
    Format/Info : Audio Coding 3
    Mode extension : CM (complete main)
    Format settings, Endianness : Big
    Codec ID : ac-3
    Duration : 1h 5mn
    Bit rate mode : Constant
    Bit rate : 384 Kbps
    Channel(s) : 6 channels
    Channel positions : Front: L C R, Side: L R, LFE
    Sampling rate : 48.0 KHz
    Bit depth : 16 bits
    Compression mode : Lossy
    Stream size : 179 MiB (5%)
    Title : Russian DVO Kubik v Kube DD 5.1
    Language : Russian
    Encoded date : UTC 2015-10-20 10:26:17
    Tagged date : UTC 2015-10-20 10:30:01
    Audio #11
    ID : 12
    Format : AC-3
    Format/Info : Audio Coding 3
    Mode extension : CM (complete main)
    Format settings, Endianness : Big
    Codec ID : ac-3
    Duration : 1h 5mn
    Bit rate mode : Constant
    Bit rate : 384 Kbps
    Channel(s) : 6 channels
    Channel positions : Front: L C R, Side: L R, LFE
    Sampling rate : 48.0 KHz
    Bit depth : 16 bits
    Compression mode : Lossy
    Stream size : 179 MiB (5%)
    Title : Russian MVO BaibaKo DD 5.1
    Language : Russian
    Encoded date : UTC 2015-10-20 10:26:17
    Tagged date : UTC 2015-10-20 10:30:01
    Audio #12
    ID : 13
    Format : AC-3
    Format/Info : Audio Coding 3
    Mode extension : CM (complete main)
    Format settings, Endianness : Big
    Codec ID : ac-3
    Duration : 1h 5mn
    Bit rate mode : Constant
    Bit rate : 384 Kbps
    Channel(s) : 6 channels
    Channel positions : Front: L C R, Side: L R, LFE
    Sampling rate : 48.0 KHz
    Bit depth : 16 bits
    Compression mode : Lossy
    Stream size : 179 MiB (5%)
    Title : English DD 5.1
    Language : English
    Encoded date : UTC 2015-10-20 10:26:17
    Tagged date : UTC 2015-10-20 10:30:01
    Text #1
    ID : 14
    Format : Timed Text
    Muxing mode : sbtl
    Codec ID : tx3g
    Duration : 54mn 34s
    Bit rate mode : Variable
    Bit rate : 4 bps
    Stream size : 1.56 KiB (0%)
    Title : Russian Forced Subtitle
    Language : Russian
    Encoded date : UTC 2015-10-20 10:26:17
    Tagged date : UTC 2015-10-20 10:26:17
    Text #2
    ID : 15
    Format : Timed Text
    Muxing mode : sbtl
    Codec ID : tx3g
    Duration : 1h 1mn
    Bit rate mode : Variable
    Bit rate : 86 bps
    Stream size : 38.5 KiB (0%)
    Title : Russian Subtitle
    Language : Russian
    Encoded date : UTC 2015-10-20 10:26:17
    Tagged date : UTC 2015-10-20 10:26:17
    Text #3
    ID : 16
    Format : Timed Text
    Muxing mode : sbtl
    Codec ID : tx3g
    Duration : 1h 2mn
    Bit rate mode : Variable
    Bit rate : 70 bps
    Stream size : 32.4 KiB (0%)
    Title : English SDH Subtitle
    Language : English
    Encoded date : UTC 2015-10-20 10:26:17
    Tagged date : UTC 2015-10-20 10:26:17

    Скриншоты

    Цитата:



    Работа со звуком и сабами Amedia - BenderBEST;

    За дорожку с Amedia и субтитры большое спасибо - BS666;
    За дорожку LostFilm большое спасибо - markinscor и Messafan.
    -

    Релиз подготовлен для просмотра на Apple TV, iPad, iPhone, iPod Touch.
    Для просмотра данного релиза на компьютере с ОС Windows рекомендуется использовать VLC media player
    Скачать .torrent

    Скачать торрент-файл бесплатно и на максимальной скорости!

    Как скачивать? · Что такое торрент? · Рейтинг и ограничения

    !ВНИМАНИЕ!
    Сайт не распространяет и не хранит электронные версии произведений, а занимается лишь лишь предоставлением доступа к создаваемому пользователями каталогу ссылок на торрент-файлы, которые содержат только списки хеш-сумм, убедительная просьба с жалобами обращаться напрямую к пользователю. Файлы для обмена на трекере предоставлены пользователями сайта, и администрация не несёт ответственности за их содержание. Просьба не заливать файлы, защищенные авторскими правами, а также файлы нелегального содержания!


    _________________
    [Профиль] [ЛС]
    Показать сообщения:    
    Ответить на тему

    Текущее время: Сегодня, в 00:08

    Часовой пояс: GMT + 2



    Вы не можете начинать темы
    Вы не можете отвечать на сообщения
    Вы не можете редактировать свои сообщения
    Вы не можете удалять свои сообщения
    Вы не можете голосовать в опросах
    Вы не можете прикреплять файлы к сообщениям
    Вы не можете скачивать файлы