BitTorrentTracker PerecTracker.org
BitTorrentTracker PerecTracker.org
    
Регистрация  ·  Вход
 
 · 
Забыли пароль?

  • Фарго / Fargo [Сезон 2] (Рэндолл Айнхорн, Майкл Аппендаль, Адам Бернштейн) [2015, США, драма, криминал, WEB-DL, HD (1080p)] MVO (Lostfilm), Original + Sub (eng)

    Ответить на тему
     
    Автор Сообщение

    rechyn

    Создавать темы 28-Фев-2016 20:42

           

    [Цитировать]

    Фарго / Fargo
    "Aw jeez, here we go again"
    -Год выпуска: 2015, (2 сезон)
    Страна: США
    Жанр: драма, криминал
    Продолжительность серии: 50 мин.
    Перевод: Многоголосый закадровый перевод
    Оригинальная аудиодорожка: Есть
    Cубтитры: Английские полные
    Режиссёр: Рэндолл Айнхорн, Майкл Аппендаль, Адам Бернштейн,
    Сценарий: Стив Блэкман, Роберт Де Лаурентис, Ной Хоули
    Продюсер: Стив Блэкман, Джон Камерон, Итан Коэн
    Оператор: Дана Гонсалес, Крейг Роблески, Мэттью Дж. Ллойд
    Композитор: Джефф Руссо
    Художник: Уоррен Алан Янг, Джон Блэкки, Элизабет Уильямс
    В ролях: Эллисон Толман, Билли Боб Торнтон, Колин Хэнкс, Мартин Фриман, Кирстен Данст, Патрик Уилсон, Джесси Племонс, Джин Смарт, Тед Дэнсон, Занн МаКларнон
    Мировая премьера: 15 апреля 2014-Описание: История второго сезона сосредоточится вокруг события, произошедшего зимой 1979 года в Су-Фолс, штат Южная Дакота, о котором часто упоминали на протяжении первого сезона, а главными героями станут молодые Лу Солверсон и его жена, мать Молли-Качество исходника: WEB-DL 1080p
    Качество: WEB-DL
    Тип: 1080p
    Контейнер: m4v
    Видео: 1916x1076 at 23.976 fps, MPEG-4 AVC, ~5000 kbps avg
    Аудио#1: Russian: 48 kHz, ААС, 2/0 (L,R), ~192.00 kbps avg |Многоголосый закадровый, LostFilm|
    Аудио#2: English: 48 kHz, ААС, 2/0 (L,R), ~192.00 kbps avg
    Аудио#3: Russian: 48 kHz, AC3, 3/2 (L,C,R,l,r) + LFE ch, ~384 kbps avg |Многоголосый закадровый, LostFilm|
    Аудио#4: English: 48 kHz, AC3, 3/2 (L,C,R,l,r) + LFE ch, ~384.00 kbps avg
    Субтитры №1: English: |Полные|-Фарго, Сезон 2
    Fargo, Season 2
    Список эпизодов
    1. Waiting for Dutch / Waiting for Dutch (12 октября 2015)
    us:In 1979, an unexpected turn of events at a diner disrupts the lives of the citizens in a small Minnesota town.
    2. Перед законом / Before the Law (19 октября 2015)
    us:The Gerhardts get a surprising offer, and two unlikely murderers do their best to clean up their mess.
    3. Миф о Сизифе / The Myth of Sysiphus (26 октября 2015)
    us:The Gerhardts' search for Rye intensifies, Lou takes a trip to Fargo, and Peggy overhears a new theory about the Waffle Hut shooter.
    4. Страх и трепет / Fear and Trembling (2 ноября 2015)
    us:Floyd responds to Kansas City’s proposal, Hanzee takes a road trip, and Lou has a realization.
    5. Дары волхвов / The Gift of the Magi (9 ноября 2015)
    us:Floyd takes action, and Charlie tries to prove himself. Peggy and Ed disagree about what to do next, while Lou finds himself sidelined during Ronald Reagan’s campaign tour.
    6. Носорог / Rhinoceros (16 ноября 2015)
    us:Lou and Hank try to prevent an altercation, Peggy and Ed defend their choices and the Gerhardt clan attempts to get back one of their own.
    7. "Это ты сделал". - "Нет, ты!" / Did You Do This? No, You Did It! (23 ноября 2015)
    us:Lou and Hank investigate in Fargo, The King of Breakfast visits Betsy and Molly, Floyd is summoned away and Bear questions a family member’s loyalty.
    8. Лоплоп / Loplop (30 ноября 2015)
    us:Hanzee searches for Peggy and Ed. Dodd ends up in unfamiliar territory.
    9. Замок / The Castle (07 декабря 2015)
    us:Peggy and Ed agree to follow through with their plan at the Motor Motel, Lou faces jurisdictional politics and Hanzee reports back to the Gerhardts.
    10. Палиндром / Palindrome (14 декабря 2015)
    us:Peggy and Ed make a run for it

    Технические данные сериала

    Эпизод №1

    iTunes Meta Tags for country us

    Sort Album: Fargo, Season 2
    Sort Artist: Fargo
    Sort Name: Waiting for Dutch
    iTunes Country: 143441
    XID: FoxTV:vendor_id:FOX_FARGO_YJZ201_US
    genreID: 4001
    playlistID: 1037442677
    artistID: 850630148
    contentID: 1046165606
    Copyright: © 2015 MGM Television Entertainment, Inc. and Bluebush Productions, LLC. All rights reserved.
    Rating: 19
    Series Description: Fargo follows a young State Trooper (Patrick Wilson) and his Sheriff father-in-law (Ted Danson) as they investigate a grizzly case involving a local crime family, a major mob syndicate who won’t rest until they’ve taken over Sioux Falls, SD, and a small town beautician and her husband who inadvertently get caught in the middle.
    Long Description: In 1979, an unexpected turn of events at a diner disrupts the lives of the citizens in a small Minnesota town.
    Description: In 1979, an unexpected turn of events at a diner disrupts the lives of the citizens in a small
    TV Season: 2
    TV Episode ID: YJZ201
    TV Episode #: 1
    TV Show: Fargo
    Disk #: 1/1
    Track #: 1/10
    Release Date: 2015-10-12T07:00:00Z
    Genre: Drama
    Album: Fargo, Season 2
    Album Artist: Fargo
    Artist: Fargo
    Name: Waiting for Dutch

    MediaInfo

    Общее
    Полное имя                               : 01 Waiting for Dutch (1080p HD).m4v
    Формат                                   : MPEG-4
    Профиль формата                          : Apple audio with iTunes info
    Идентификатор кодека                     : M4A
    Размер файла                             : 2,24 Гбайт
    Продолжительность                        : 52 м.
    Режим общего битрейта                    : Переменный
    Общий поток                              : 6134 Кбит/сек
    Коллекция                                : Fargo
    Сезон                                    : 2
    Альбом                                   : Fargo, Season 2
    Альбом/Сортировать по                    : Fargo, Season 2
    Альбом/Исполнитель                       : Fargo
    Часть                                    : 1
    Часть/Положение                          : 1
    Часть/Всего                              : 1
    Трек                                     : Waiting for Dutch
    Трек/Положение                           : 1
    Трек/Всего                               : 10
    Исполнитель                              : Fargo
    Исполнитель/Сортировать по               : Fargo
    Жанр                                     : Drama
    Тип содержимого                          : TV Show
    Описание                                 : In 1979, an unexpected turn of events at a diner disrupts the lives of the citizens in a small / Fargo follows a young State Trooper (Patrick Wilson) and his Sheriff father-in-law (Ted Danson) as they investigate a grizzly case involving a local crime family, a major mob syndicate who won’t rest until they’ve taken over Sioux Falls, SD, and a small town beautician and her husband who inadvertently get caught in the middle.
    Дата записи                              : UTC 2015-10-12 07:00:00
    Дата кодирования                         : UTC 2015-11-19 04:43:30
    Дата пометки                             : UTC 2015-11-19 05:30:25
    Правообладатель                          : © 2015 MGM Television Entertainment, Inc. and Bluebush Productions, LLC. All rights reserved.
    Обложка                                  : Yes
    Рейтинг                                  : None
    Part_ID                                  : YJZ201
    Title/Sort                               : Waiting for Dutch
    LongDescription                          : In 1979, an unexpected turn of events at a diner disrupts the lives of the citizens in a small Minnesota town.
    AppleStoreCountry                        : United States
    AppleStoreCatalogID                      : 1046165606
    AlbumTitleID                             : 850630148
    PlayListID                               : 1037442677
    GenreID                                  : 4001
    Vendor                                   : FoxTV:vendor_id:FOX_FARGO_YJZ201_US
    ContentRating                            : us-tv|TV-MA|600|
    Видео
    Идентификатор                            : 1
    Формат                                   : AVC
    Формат/Информация                        : Advanced Video Codec
    Профиль формата                          : High@L4.0
    Параметр CABAC формата                   : Да
    Параметр ReFrames формата                : 4 кадра
    Идентификатор кодека                     : avc1
    Идентификатор кодека/Информация          : Advanced Video Coding
    Продолжительность                        : 52 м.
    Битрейт                                  : 5017 Кбит/сек
    Ширина                                   : 1916 пикселей
    Высота                                   : 1076 пикселей
    Соотношение сторон                       : 16:9
    Режим частоты кадров                     : Переменный
    Частота кадров                           : 23,976 кадра/сек
    Минимальная частота кадров               : 23,810 кадра/сек
    Максимальная частота кадров              : 24,390 кадра/сек
    Цветовое пространство                    : YUV
    Субдискретизация насыщенности            : 4:2:0
    Битовая глубина                          : 8 бит
    Тип развёртки                            : Прогрессивная
    Бит/(Пиксели*Кадры)                      : 0.102
    Размер потока                            : 1,83 Гбайт (82%)
    Язык                                     : English
    Дата кодирования                         : UTC 2015-11-19 05:26:23
    Дата пометки                             : UTC 2015-11-19 05:27:28
    Основные цвета                           : BT.709
    Характеристики трансфера                 : BT.709
    Коэффициенты матрицы                     : BT.709
    Аудио #1
    Идентификатор                            : 2
    Формат                                   : AAC
    Формат/Информация                        : Advanced Audio Codec
    Профиль формата                          : LC
    Идентификатор кодека                     : 40
    Продолжительность                        : 52 м.
    Вид битрейта                             : Переменный
    Битрейт                                  : 185 Кбит/сек
    Максимальный битрейт                     : 281 Кбит/сек
    Каналы                                   : 2 канала
    Расположение каналов                     : Front: L R
    Частота                                  : 48,0 КГц
    Метод сжатия                             : С потерями
    Размер потока                            : 69,4 Мбайт (3%)
    Язык                                     : Russian
    Дата кодирования                         : UTC 2015-11-19 04:43:30
    Дата пометки                             : UTC 2015-11-19 04:43:30
    Аудио #2
    Идентификатор                            : 3
    Формат                                   : AC-3
    Формат/Информация                        : Audio Coding 3
    Расширение режима                        : CM (complete main)
    Параметр Endianness формата              : Big
    Идентификатор кодека                     : ac-3
    Продолжительность                        : 52 м.
    Вид битрейта                             : Постоянный
    Битрейт                                  : 384 Кбит/сек
    Каналы                                   : 6 каналов
    Расположение каналов                     : Front: L C R, Side: L R, LFE
    Частота                                  : 48,0 КГц
    Битовая глубина                          : 16 бит
    Метод сжатия                             : С потерями
    Размер потока                            : 144 Мбайт (6%)
    Язык                                     : Russian
    Дата кодирования                         : UTC 2015-11-19 05:26:23
    Дата пометки                             : UTC 2015-11-19 05:27:28
    Аудио #3
    Идентификатор                            : 4
    Формат                                   : AAC
    Формат/Информация                        : Advanced Audio Codec
    Профиль формата                          : LC
    Идентификатор кодека                     : 40
    Продолжительность                        : 52 м.
    Вид битрейта                             : Переменный
    Битрейт                                  : 155 Кбит/сек
    Максимальный битрейт                     : 252 Кбит/сек
    Каналы                                   : 2 канала
    Расположение каналов                     : Front: L R
    Частота                                  : 48,0 КГц
    Метод сжатия                             : С потерями
    Размер потока                            : 58,1 Мбайт (3%)
    Язык                                     : English
    Дата кодирования                         : UTC 2015-11-19 05:26:23
    Дата пометки                             : UTC 2015-11-19 05:27:28
    Аудио #4
    Идентификатор                            : 5
    Формат                                   : AC-3
    Формат/Информация                        : Audio Coding 3
    Расширение режима                        : CM (complete main)
    Параметр Endianness формата              : Big
    Идентификатор кодека                     : ac-3
    Продолжительность                        : 52 м.
    Вид битрейта                             : Постоянный
    Битрейт                                  : 384 Кбит/сек
    Каналы                                   : 6 каналов
    Расположение каналов                     : Front: L C R, Side: L R, LFE
    Частота                                  : 48,0 КГц
    Битовая глубина                          : 16 бит
    Метод сжатия                             : С потерями
    Размер потока                            : 144 Мбайт (6%)
    Язык                                     : English
    Дата кодирования                         : UTC 2015-11-19 05:26:23
    Дата пометки                             : UTC 2015-11-19 05:27:28
    Текст
    Идентификатор                            : 6
    Формат                                   : Timed Text
    Режим смешивания                         : sbtl
    Идентификатор кодека                     : tx3g
    Продолжительность                        : 52 м.
    Вид битрейта                             : Переменный
    Битрейт                                  : 65 бит/сек
    Размер потока                            : 25,1 Кбайт (0%)
    Язык                                     : English
    Дата кодирования                         : UTC 2015-11-19 05:26:23
    Дата пометки                             : UTC 2015-11-19 05:27:28

    Скриншоты

    -

    Релиз подготовлен для просмотра на Apple TV, iPad, iPhone, iPod Touch.
    Для просмотра данного релиза на компьютере с ОС Windows рекомендуется использовать VLC media player
    Скачать .torrent

    Скачать торрент-файл бесплатно и на максимальной скорости!

    Как скачивать? · Что такое торрент? · Рейтинг и ограничения

    !ВНИМАНИЕ!
    Сайт не распространяет и не хранит электронные версии произведений, а занимается лишь лишь предоставлением доступа к создаваемому пользователями каталогу ссылок на торрент-файлы, которые содержат только списки хеш-сумм, убедительная просьба с жалобами обращаться напрямую к пользователю. Файлы для обмена на трекере предоставлены пользователями сайта, и администрация не несёт ответственности за их содержание. Просьба не заливать файлы, защищенные авторскими правами, а также файлы нелегального содержания!


    _________________
    [Профиль] [ЛС]
    Показать сообщения:    
    Ответить на тему

    Текущее время: Сегодня, в 16:29

    Часовой пояс: GMT + 2



    Вы не можете начинать темы
    Вы не можете отвечать на сообщения
    Вы не можете редактировать свои сообщения
    Вы не можете удалять свои сообщения
    Вы не можете голосовать в опросах
    Вы не можете прикреплять файлы к сообщениям
    Вы не можете скачивать файлы