BitTorrentTracker PerecTracker.org
BitTorrentTracker PerecTracker.org
    
Регистрация  ·  Вход
 
 · 
Забыли пароль?

  • Чтобы увидеть радугу / Серии: 1-4 из 4 (Оксана Байрак) [2016, Мелодрама, детектив, WEBRip]

    Ответить на тему
     
    Автор Сообщение

    rechyn

    Создавать темы 28-Фев-2016 20:22

           

    [Цитировать]

    Чтобы увидеть радугу
    Год выпуска: 2016
    Производство: Film.ua & Oksana Bayrak film
    Жанр: Мелодрама, детектив
    Продолжительность: 00:46:00
    Субтитры: Нет
    Режиссёр: Оксана Байрак
    В ролях: Елена Радевич, Иван Колесников, Владимир Епифанцев, Сергей Воробьёв, Марина Анисович, Римма Зюбина, Михаил Дорожкин, Дмитрий Тубольцев, Ринат Хайруллин, Алиса Лукшина
    Описание: У 25-летней Веры все в жизни прекрасно. Она выросла в семье министра областного правительства, получила хорошее образование и готовится к карьере врача-кардиолога. Единственное, чего у Веры пока нет, - это настоящей любви. Но встреча с умным и обаятельным Игорем меняет жизнь девушки. И хотя отец Веры далеко не в восторге от ее выбора, ведь майор уголовного розыска - не совсем тот мужчина, которого бы ему хотелось видеть рядом с дочерью, он принимает ее решение. Но вскоре Веру находит Антон - её школьная любовь. Она понимает, что любовь к Антону жива, и отказывается выйти замуж за Игоря. Однако девушка и не догадывается, в каких страшных делах замешан ее школьный друг. Вскоре бывший жених сообщает Вере, что Антон - преступник, и он замешан в ограблении и даже в убийстве...-Доп. информация: Реклама отсутствует!-Все раздачи сериала: http://perectracker.org/tracker.php?f=41&nm=Чтобы%увидеть%радугу
    Сэмпл: СКАЧАТЬ
    Качество: WEBRip
    Формат: AVI
    Видео кодек: XviD
    Аудио кодек: MP3
    Видео: 720x400, 25 fps, XviD, ~1500 kbps, 0.229 bit/pixel
    Аудио: 44.1 kHz, MPEG Layer 3, 2 ch, 192 kbps

    MI

    Общее
    Полное имя : I:\001\Чтобы увидеть радугу (2016) WEB-DLRip\Чтобы увидеть радугу.(01.seriya).2016.XviD.WEB-DLRip.by.simka.avi
    Формат : AVI
    Формат/Информация : Audio Video Interleave
    Размер файла : 551 Мбайт
    Продолжительность : 44 м.
    Общий поток : 1715 Кбит/сек
    Программа кодирования : VirtualDubMod 1.5.10.3 | www.virtualdub-fr.org || (build 2550/release)
    Библиотека кодирования : VirtualDubMod build 2550/release
    Видео
    Идентификатор : 0
    Формат : MPEG-4 Visual
    Профиль формата : Advanced Simple@L5
    Параметр BVOP формата : 1
    Параметр QPel формата : Нет
    Параметр GMC формата : Без точки перехода
    Параметр матрицы формата : Default (MPEG)
    Идентификатор кодека : XVID
    Идентификатор кодека/Подсказка : XviD
    Продолжительность : 44 м.
    Битрейт : 1513 Кбит/сек
    Ширина : 720 пикселей
    Высота : 400 пикселей
    Соотношение сторон : 16:9
    Частота кадров : 25,000 кадров/сек
    Цветовое пространство : YUV
    Субдискретизация насыщенности : 4:2:0
    Битовая глубина : 8 бит
    Тип развёртки : Прогрессивная
    Метод сжатия : С потерями
    Бит/(Пиксели*Кадры) : 0.210
    Размер потока : 486 Мбайт (88%)
    Библиотека кодирования : XviD 1.2.1 (UTC 2008-12-04)
    Аудио
    Идентификатор : 1
    Формат : MPEG Audio
    Версия формата : Version 1
    Профиль формата : Layer 3
    Режим : Joint stereo
    Расширение режима : MS Stereo
    Идентификатор кодека : 55
    Идентификатор кодека/Подсказка : MP3
    Продолжительность : 44 м.
    Вид битрейта : Постоянный
    Битрейт : 192 Кбит/сек
    Каналы : 2 канала
    Частота : 44,1 КГц
    Метод сжатия : С потерями
    Размер потока : 61,7 Мбайт (11%)
    Выравнивание : Разделение по промежуткам
    Продолжительность промежутка : 40 мс. (1,00 видеокадр)
    Время предзагрузки промежутка : 500 мс.
    Библиотека кодирования : LAME3.99r
    Настройки программы : -m j -V 4 -q 2 -lowpass 18.6 -b 192

    Скриншоты

    Скачать .torrent

    Скачать торрент-файл бесплатно и на максимальной скорости!

    Как скачивать? · Что такое торрент? · Рейтинг и ограничения

    !ВНИМАНИЕ!
    Сайт не распространяет и не хранит электронные версии произведений, а занимается лишь лишь предоставлением доступа к создаваемому пользователями каталогу ссылок на торрент-файлы, которые содержат только списки хеш-сумм, убедительная просьба с жалобами обращаться напрямую к пользователю. Файлы для обмена на трекере предоставлены пользователями сайта, и администрация не несёт ответственности за их содержание. Просьба не заливать файлы, защищенные авторскими правами, а также файлы нелегального содержания!


    _________________
    [Профиль] [ЛС]
    Показать сообщения:    
    Ответить на тему

    Текущее время: Сегодня, в 22:37

    Часовой пояс: GMT + 2



    Вы не можете начинать темы
    Вы не можете отвечать на сообщения
    Вы не можете редактировать свои сообщения
    Вы не можете удалять свои сообщения
    Вы не можете голосовать в опросах
    Вы не можете прикреплять файлы к сообщениям
    Вы не можете скачивать файлы