BitTorrentTracker PerecTracker.org
BitTorrentTracker PerecTracker.org
    
Регистрация  ·  Вход
 
 · 
Забыли пароль?

  • Золотая клетка (Иллюзия любви) / Серии: 1-8 из 8 (Сергей Кешишев) [2015, Мелодрама, криминал, HDTVRip 720p]

    Ответить на тему
     
    Автор Сообщение

    rechyn

    Создавать темы 28-Фев-2016 20:08

           

    [Цитировать]

    Золотая клетка (Иллюзия любви)-Год выпуска: 2015
    Производитель: Россия, ООО Кинокомпания «Маркес»
    Жанр: Мелодрама, криминал
    Продолжительность: ~ 00:45:00 / Серия
    Субтитры: Нет
    Режиссер: Сергей Кешишев
    В ролях: Ирина Антоненко, Дмитрий Исаев, Станислав Бондаренко, Алексей Суренский, Юлия Яблонская, Нина Курпякова, Евгений Кушпель, Юрий Пронин, Сергей Походаев, Евгения Каверау, Ольга Житник, Артём Крестников, Роман Синицын, Слава Степанян, Владимир Довжик, Алексей Эйбоженко (мл.), Василий Шмаков, Екатерина Куликова, Валерий Скорокосов, Татьяна Лебедькова, Анна Канарис, Василий Стоноженко, Анна Алексеева, Юрий Печенежский-Описание: Красавица медсестра Алина вынуждена бежать из родного города после череды ужасных и трагических событий. В Москве Алина работает сиделкой у пострадавшего в аварии молодого миллионера и оказывается полностью в его власти. Но это ли настоящая любовь? Вскоре Алина снова остается одна. Спасаясь от преследователя, который не остановится, пока не найдет ее, Алина полностью меняет свою жизнь, но за внешним благополучием и фасадами красивых домов скрываются тайны, которые лучше никому не знать...-Реклама: Отсутствует
    Релиз: Rip by Nikolspup от MediaClub

    Все раздачи сериала
    Семпл-Качество: HDTVRip 720p
    Формат: MKV
    Видео кодек: AVC
    Аудио кодек: AC3
    Видео: MPEG-4 AVC, ~ 3000 Кбит/с, 1280x720, 25 кадр/с, 0.122 Бит/(Пиксели*Кадры)
    Аудио: AC3, 2 ch, 192 Кбит/с, 48,0 КГц

    MI

    Общее
    Уникальный идентификатор : 176360205290693886032223370515514517273 (0x84ADBD730C9DE17DB7B9BD7B35C9E719)
    Полное имя : F:\Фильмы торренты\Zolotaya.Kletka.2015.HDTVRip.(720p).MediaClub\Zolotaya.Kletka.(01.seriya.iz.04).2013.HDTVRip.(720p).MediaClub.mkv
    Формат : Matroska
    Версия формата : Version 2
    Размер файла : 1,85 Гбайт
    Продолжительность : 1 ч. 28 м.
    Общий поток : 2999 Кбит/сек
    Дата кодирования : UTC 2016-02-25 08:42:37
    Программа кодирования : mkvmerge v7.8.0 ('River Man') 32bit built on Apr 3 2015 12:11:22
    Библиотека кодирования : libebml v1.3.1 + libmatroska v1.4.2
    Видео
    Идентификатор : 1
    Формат : AVC
    Формат/Информация : Advanced Video Codec
    Профиль формата : High@L4.1
    Параметр CABAC формата : Да
    Параметр ReFrames формата : 9 кадров
    Идентификатор кодека : V_MPEG4/ISO/AVC
    Продолжительность : 1 ч. 28 м.
    Битрейт : 2806 Кбит/сек
    Ширина : 1280 пикселей
    Высота : 720 пикселей
    Соотношение сторон : 16:9
    Режим частоты кадров : Постоянный
    Частота кадров : 25,000 кадров/сек
    Цветовое пространство : YUV
    Субдискретизация насыщенности : 4:2:0
    Битовая глубина : 8 бит
    Тип развёртки : Прогрессивная
    Бит/(Пиксели*Кадры) : 0.122
    Размер потока : 1,69 Гбайт (92%)
    Библиотека кодирования : x264 core 146 r2538 121396c
    Настройки программы : cabac=1 / ref=9 / deblock=1:-3:-3 / analyse=0x3:0x113 / me=umh / subme=11 / psy=1 / psy_rd=1.00:0.20 / mixed_ref=1 / me_range=32 / chroma_me=1 / trellis=2 / 8x8dct=1 / cqm=0 / deadzone=21,11 / fast_pskip=0 / chroma_qp_offset=-3 / threads=12 / lookahead_threads=3 / sliced_threads=0 / nr=0 / decimate=0 / interlaced=0 / bluray_compat=0 / constrained_intra=0 / bframes=12 / b_pyramid=2 / b_adapt=2 / b_bias=0 / direct=3 / weightb=1 / open_gop=0 / weightp=2 / keyint=250 / keyint_min=25 / scenecut=40 / intra_refresh=0 / rc_lookahead=60 / rc=2pass / mbtree=0 / bitrate=2806 / ratetol=1.0 / qcomp=0.60 / qpmin=0 / qpmax=69 / qpstep=4 / cplxblur=20.0 / qblur=0.5 / vbv_maxrate=14000 / vbv_bufsize=14000 / nal_hrd=none / filler=0 / ip_ratio=1.40 / pb_ratio=1.30 / aq=3:0.80
    Default : Да
    Forced : Нет
    Основные цвета : BT.709
    Характеристики трансфера : BT.709
    Коэффициенты матрицы : BT.709
    Аудио
    Идентификатор : 2
    Формат : AC-3
    Формат/Информация : Audio Coding 3
    Расширение режима : CM (complete main)
    Параметр Endianness формата : Big
    Идентификатор кодека : A_AC3
    Продолжительность : 1 ч. 28 м.
    Вид битрейта : Постоянный
    Битрейт : 192 Кбит/сек
    Каналы : 2 канала
    Расположение каналов : Front: L R
    Частота : 48,0 КГц
    Битовая глубина : 16 бит
    Метод сжатия : С потерями
    Размер потока : 121 Мбайт (6%)
    Default : Да
    Forced : Нет

    Скриншоты

    Скачать .torrent

    Скачать торрент-файл бесплатно и на максимальной скорости!

    Как скачивать? · Что такое торрент? · Рейтинг и ограничения

    !ВНИМАНИЕ!
    Сайт не распространяет и не хранит электронные версии произведений, а занимается лишь лишь предоставлением доступа к создаваемому пользователями каталогу ссылок на торрент-файлы, которые содержат только списки хеш-сумм, убедительная просьба с жалобами обращаться напрямую к пользователю. Файлы для обмена на трекере предоставлены пользователями сайта, и администрация не несёт ответственности за их содержание. Просьба не заливать файлы, защищенные авторскими правами, а также файлы нелегального содержания!


    _________________
    [Профиль] [ЛС]
    Показать сообщения:    
    Ответить на тему

    Текущее время: Сегодня, в 04:12

    Часовой пояс: GMT + 2



    Вы не можете начинать темы
    Вы не можете отвечать на сообщения
    Вы не можете редактировать свои сообщения
    Вы не можете удалять свои сообщения
    Вы не можете голосовать в опросах
    Вы не можете прикреплять файлы к сообщениям
    Вы не можете скачивать файлы