BitTorrentTracker PerecTracker.org
BitTorrentTracker PerecTracker.org
    
Регистрация  ·  Вход
 
 · 
Забыли пароль?

  • Клоун / O Palhaco / The Clown (Селтон Мелу / Selton Mello) [2011, Бразилия, драма, комедия, приключения, DVDRip] VO + Original Por

    Ответить на тему
     
    Автор Сообщение

    rechyn

    Создавать темы 28-Фев-2016 16:24

           

    [Цитировать]

    Клоун / O Palhaço / The ClownСтрана: Бразилия
    Жанр: драма, комедия, приключения
    Год выпуска: 2011
    Продолжительность: 01:29:41
    Перевод: Одноголосый закадровый - PiterVV
    Cубтитры: нет
    Оригинальная аудиодорожка: португальская
    Режиссер: Селтон Мелу / Selton Mello
    В ролях: Селтон Мелу, Пауло Жозе, Ларисса Маноела, Жизелль Мотта, Теуда Бара, Аламо Фако, Каду Фаверо, Эром Кордейру, Hossen Minussi, Maira Chasseroux.
    Описание: Бенджамин и Вальдемар — участники клоунского дуэта, который путешествует с цирком «Эсперанца». Однажды Бенджамин чувствует, что он утратил свой талант, и тогда он принимает решение уйти из цирка, в котором вырос. С одной лишь копией свидетельства о рождении в кармане он отправляется в увлекательное приключение навстречу своей мечте...

    Доп. информация: DVDRip позаимствован из релиза EceAyhan с
    Перевод и озвучка выполнены PiterVV, из раздачи ronsy. Спасибо!
    Сведение звуковой дорожки - Arle-kino

    Качество видео: DVDRip
    Формат видео: AVI
    Видео: 720x400 (1.80:1), 23.976 fps, XviD build 64 ~1481 kbps avg, 0.21 bit/pixel
    Аудио 1: 48 kHz, MPEG Layer 3, 2 ch, ~224.00 kbps avg - Russian
    Аудио 2: 48 kHz, AC3 Dolby Digital, 3/2 (L,C,R,l,r) + LFE ch, ~448 kbps - Portuguese

    MediaInfo

    General
    Complete name : D:\Public\O Palhaco (2011) DVDRip (rus, port).avi
    Format : AVI
    Format/Info : Audio Video Interleave
    File size : 1.36 GiB
    Duration : 1h 29mn
    Overall bit rate : 2 169 Kbps
    Writing application : VirtualDubMod 1.5.10.2 (build 2542/release)
    Writing library : VirtualDubMod build 2542/release
    Video
    ID : 0
    Format : MPEG-4 Visual
    Format profile : Advanced Simple@L5
    Format settings, BVOP : 3
    Format settings, QPel : No
    Format settings, GMC : No warppoints
    Format settings, Matrix : Custom
    Codec ID : XVID
    Codec ID/Hint : XviD
    Duration : 1h 29mn
    Bit rate : 1 483 Kbps
    Width : 720 pixels
    Height : 400 pixels
    Display aspect ratio : 16:9
    Frame rate : 23.976 fps
    Color space : YUV
    Chroma subsampling : 4:2:0
    Bit depth : 8 bits
    Scan type : Progressive
    Compression mode : Lossy
    Bits/(Pixel*Frame) : 0.215
    Stream size : 951 MiB (68%)
    Writing library : XviD 64
    Audio #1
    ID : 1
    Format : MPEG Audio
    Format version : Version 1
    Format profile : Layer 3
    Codec ID : 55
    Codec ID/Hint : MP3
    Duration : 1h 29mn
    Bit rate mode : Constant
    Bit rate : 224 Kbps
    Channel(s) : 2 channels
    Sampling rate : 48.0 KHz
    Compression mode : Lossy
    Stream size : 144 MiB (10%)
    Alignment : Aligned on interleaves
    Interleave, duration : 42 ms (1.00 video frame)
    Interleave, preload duration : 504 ms
    Title : Russian
    Writing library : LAME3.98r
    Encoding settings : -m s -V 4 -q 2 -lowpass 19.4 -b 224
    Audio #2
    ID : 2
    Format : AC-3
    Format/Info : Audio Coding 3
    Mode extension : CM (complete main)
    Codec ID : 2000
    Duration : 1h 29mn
    Bit rate mode : Constant
    Bit rate : 448 Kbps
    Channel(s) : 6 channels
    Channel positions : Front: L C R, Side: L R, LFE
    Sampling rate : 48.0 KHz
    Bit depth : 16 bits
    Compression mode : Lossy
    Stream size : 287 MiB (21%)
    Alignment : Split accross interleaves
    Interleave, duration : 42 ms (1.00 video frame)
    Interleave, preload duration : 500 ms
    Title : Portuguese

    Скриншот c названием фильма

    Скриншоты

    Скачать .torrent

    Скачать торрент-файл бесплатно и на максимальной скорости!

    Как скачивать? · Что такое торрент? · Рейтинг и ограничения

    !ВНИМАНИЕ!
    Сайт не распространяет и не хранит электронные версии произведений, а занимается лишь лишь предоставлением доступа к создаваемому пользователями каталогу ссылок на торрент-файлы, которые содержат только списки хеш-сумм, убедительная просьба с жалобами обращаться напрямую к пользователю. Файлы для обмена на трекере предоставлены пользователями сайта, и администрация не несёт ответственности за их содержание. Просьба не заливать файлы, защищенные авторскими правами, а также файлы нелегального содержания!


    _________________
    [Профиль] [ЛС]
    Показать сообщения:    
    Ответить на тему

    Текущее время: Сегодня, в 12:32

    Часовой пояс: GMT + 2



    Вы не можете начинать темы
    Вы не можете отвечать на сообщения
    Вы не можете редактировать свои сообщения
    Вы не можете удалять свои сообщения
    Вы не можете голосовать в опросах
    Вы не можете прикреплять файлы к сообщениям
    Вы не можете скачивать файлы