BitTorrentTracker PerecTracker.org
BitTorrentTracker PerecTracker.org
    
Регистрация  ·  Вход
 
 · 
Забыли пароль?

  • Рыцари королевства Крутизны / Knights of Badassdom (Джо Линч / Joe Lynch ) [2013, США, фэнтези, ужасы, комедия, BDRemux 1080p] MVO (ТНТ) + MVO (ViruseProject) + Original (Eng) + Subs (Rus, Eng)

    Ответить на тему
     
    Автор Сообщение

    Flirldrerve

    Создавать темы 28-Фев-2016 03:54

           

    [Цитировать]

    Рыцари королевства Крутизны / Knights of Badassdom

    -
    -Страна: США
    Студия: North by Northwest Entertainment, IndieVest Pictures
    Жанр: фэнтези, ужасы, комедия
    Год выпуска: 2013
    Продолжительность: 01:25:27--Перевод 1: Профессиональный (многоголосый закадровый) ТНТ
    Перевод 2: Любительский (многоголосый закадровый) ViruseProject
    Cубтитры: русские (Kintar & Co), английские SDH
    Оригинальная аудиодорожка: английский--Режиссер: Джо Линч / Joe Lynch
    В ролях:Райан Квантен, Стив Зан, Питер Динклэйдж, Саммер Глау, Маргарита Левиева, Том Хоппер, Джимми Симпсон, Дэнни Пуди, Джошуа Малина, У. Эрл Браун--Описание: Джо кидает девушка, и поэтому его друзья, повернутые на ролевых играх Эрик и Ханг, предлагают пыхнуть кальянчика и расслабиться. В итоге Джо просыпается в грузовике, разодетый в рыцаря в эпицентре ролевой игры. Дружбаны уговаривают его провести этот ролевой день с ними, чтобы Джо забыл свою девушку. Далее Эрик, сам того не зная, вызывает демона при помощи книги, купленной в интернете, и теперь друзьям нужно победить этого демона, спасти целое поле народа и самим не погибнуть…-- | | Сэмпл--Тип релиза: BDRemux 1080p [Knights Of Badassdom 2013 BluRay 1080p AVC DTS-HD MA5.1-CHDBits]
    Контейнер: MKV
    Видео: MPEG-4 AVC / 28323 kbps / 1920x1080 / 23,976 fps / 16:9 / High Profile 4.1
    Аудио 1: Russian AC3 / 2.0 / 48 kHz / 192 kbps / 16 bits |MVO,ТНТ|
    Аудио 2: Russian DTS-HD Master Audio / 5.1 / 48 kHz / 2193 kbps / 16 bits (DTS Core: 5.1 / 48 kHz / 1509 kbps / 16 bits) |ViruseProject|
    Аудио 3: English DTS-HD Master Audio / 5.1 / 48 kHz / 2175 kbps / 16 bits (DTS Core: 5.1 / 48 kHz / 1509 kbps / 16 bits) |original|
    Формат субтитров: softsub [SRT]

    MediaInfo

    Общее
    Уникальный идентификатор                 : 248680960198584600550025073724395644351 (0xBB1635F5F9CC4DFB962FA7D983A465BF)
    Полное имя                               : G:\HD\Рыцари королевства Крутизны.2014.Blu-Ray.Remux.(1080p).mkv
    Формат                                   : Matroska
    Версия формата                           : Version 4 / Version 2
    Размер файла                             : 19,6 Гбайт
    Продолжительность                        : 1 ч. 25 м.
    Режим общего битрейта                    : Переменный
    Общий поток                              : 32,9 Мбит/сек
    Дата кодирования                         : UTC 2016-02-27 20:38:12
    Программа кодирования                    : mkvmerge v8.9.0 ('Father Daughter') 64bit
    Библиотека кодирования                   : libebml v1.3.3 + libmatroska v1.4.4
    Attachments                              : poster.jpg
    Видео
    Идентификатор                            : 1
    Формат                                   : AVC
    Формат/Информация                        : Advanced Video Codec
    Профиль формата                          : High@L4.1
    Параметр CABAC формата                   : Да
    Параметр ReFrames формата                : 4 кадра
    Идентификатор кодека                     : V_MPEG4/ISO/AVC
    Продолжительность                        : 1 ч. 25 м.
    Вид битрейта                             : Переменный
    Битрейт                                  : 28,3 Мбит/сек
    Максимальный битрейт                     : 37,0 Мбит/сек
    Ширина                                   : 1920 пикселей
    Высота                                   : 1080 пикселей
    Соотношение сторон                       : 16:9
    Режим частоты кадров                     : Постоянный
    Частота кадров                           : 23,976 (24000/1001) кадра/сек
    Стандарт вещания                         : NTSC
    Цветовое пространство                    : YUV
    Субдискретизация насыщенности            : 4:2:0
    Битовая глубина                          : 8 бит
    Тип развёртки                            : Прогрессивная
    Бит/(Пиксели*Кадры)                      : 0.570
    Размер потока                            : 16,9 Гбайт (86%)
    Default                                  : Да
    Forced                                   : Нет
    Цветовой диапазон                        : Limited
    Основные цвета                           : BT.709
    Характеристики трансфера                 : BT.709
    Коэффициенты матрицы                     : BT.709
    Аудио #1
    Идентификатор                            : 2
    Формат                                   : AC-3
    Формат/Информация                        : Audio Coding 3
    Расширение режима                        : CM (complete main)
    Параметр Endianness формата              : Big
    Идентификатор кодека                     : A_AC3
    Продолжительность                        : 1 ч. 25 м.
    Вид битрейта                             : Постоянный
    Битрейт                                  : 192 Кбит/сек
    Каналы                                   : 2 канала
    Расположение каналов                     : Front: L R
    Частота                                  : 48,0 КГц
    Частота кадров                           : 31,250 кадров/сек (1536 spf)
    Метод сжатия                             : С потерями
    Размер потока                            : 117 Мбайт (1%)
    Заголовок                                : MVO, ТНТ
    Язык                                     : Russian
    Default                                  : Нет
    Forced                                   : Нет
    Аудио #2
    Идентификатор                            : 3
    Формат                                   : DTS
    Формат/Информация                        : Digital Theater Systems
    Профиль формата                          : MA / Core
    Режим                                    : 16
    Параметр Endianness формата              : Big
    Идентификатор кодека                     : A_DTS
    Продолжительность                        : 1 ч. 25 м.
    Вид битрейта                             : Переменный / Постоянный
    Битрейт                                  : 2192 Кбит/сек / 1509 Кбит/сек
    Каналы                                   : 6 каналов
    Расположение каналов                     : Front: L C R, Side: L R, LFE
    Частота                                  : 48,0 КГц
    Частота кадров                           : 93,750 кадра/сек (512 spf)
    Битовая глубина                          : 16 бит
    Метод сжатия                             : Без потерь / Lossy
    Размер потока                            : 1,31 Гбайт (7%)
    Заголовок                                : MVO, ViruseProject
    Язык                                     : Russian
    Default                                  : Да
    Forced                                   : Нет
    Аудио #3
    Идентификатор                            : 4
    Формат                                   : DTS
    Формат/Информация                        : Digital Theater Systems
    Профиль формата                          : MA / Core
    Режим                                    : 16
    Параметр Endianness формата              : Big
    Идентификатор кодека                     : A_DTS
    Продолжительность                        : 1 ч. 25 м.
    Вид битрейта                             : Переменный / Постоянный
    Битрейт                                  : 2175 Кбит/сек / 1509 Кбит/сек
    Каналы                                   : 6 каналов
    Расположение каналов                     : Front: L C R, Side: L R, LFE
    Частота                                  : 48,0 КГц
    Частота кадров                           : 93,750 кадра/сек (512 spf)
    Битовая глубина                          : 16 бит
    Метод сжатия                             : Без потерь / Lossy
    Размер потока                            : 1,30 Гбайт (7%)
    Язык                                     : English
    Default                                  : Нет
    Forced                                   : Нет
    Текст #1
    Идентификатор                            : 5
    Формат                                   : UTF-8
    Идентификатор кодека                     : S_TEXT/UTF8
    Идентификатор кодека/Информация          : UTF-8 Plain Text
    Продолжительность                        : 1 ч. 20 м.
    Битрейт                                  : 97 бит/сек
    Count of elements                        : 1217
    Размер потока                            : 57,6 Кбайт (0%)
    Заголовок                                : Kintar & Co
    Язык                                     : Russian
    Default                                  : Нет
    Forced                                   : Нет
    Текст #2
    Идентификатор                            : 6
    Формат                                   : UTF-8
    Идентификатор кодека                     : S_TEXT/UTF8
    Идентификатор кодека/Информация          : UTF-8 Plain Text
    Продолжительность                        : 1 ч. 24 м.
    Битрейт                                  : 63 бит/сек
    Count of elements                        : 1547
    Размер потока                            : 39,7 Кбайт (0%)
    Заголовок                                : SDH
    Язык                                     : English
    Default                                  : Нет
    Forced                                   : Нет
    Меню
    00:00:00.000                             : :Chapter 01
    00:05:02.510                             : :Chapter 02
    00:09:34.824                             : :Chapter 03
    00:12:56.567                             : :Chapter 04
    00:18:42.037                             : :Chapter 05
    00:25:52.801                             : :Chapter 06
    00:31:01.234                             : :Chapter 07
    00:35:34.006                             : :Chapter 08
    00:42:39.473                             : :Chapter 09
    00:46:58.398                             : :Chapter 10
    00:52:13.088                             : :Chapter 11
    00:57:53.344                             : :Chapter 12
    01:02:52.226                             : :Chapter 13
    01:10:05.284                             : :Chapter 14
    01:16:33.130                             : :Chapter 15
    01:20:48.802                             : :Chapter 16

    Скриншоты


    Дополнительно
    Цитата:Дорожка №1 взята с этой раздачи thx: miha2154
    Цитата:
    Цитата:

    Дорожка №2 получена наложением чистого голоса на центр декодированного DTS-HD MA.
    ViruseProject писал(а):
    Цитата:

    Закадровое озвучание: Марина Видякина, Елена Емельянова, Алекс Викке, Алексей Кизуб, Дмитрий Кравченко, Дмитрий Иванов, Александр Федоров, Александр Мигунов (shaMan) и Евгений Яковель
    Перевод: Татьяна Масаковская (при участии МЕГАПЫХАРЯ)
    Сведение звука: Виталий Емельянов
    Торент-файл перезалит 28.02.2016. русская дорожка заменена на стерео, с IPTV
    Скачать .torrent

    Скачать торрент-файл бесплатно и на максимальной скорости!

    Как скачивать? · Что такое торрент? · Рейтинг и ограничения

    !ВНИМАНИЕ!
    Сайт не распространяет и не хранит электронные версии произведений, а занимается лишь лишь предоставлением доступа к создаваемому пользователями каталогу ссылок на торрент-файлы, которые содержат только списки хеш-сумм, убедительная просьба с жалобами обращаться напрямую к пользователю. Файлы для обмена на трекере предоставлены пользователями сайта, и администрация не несёт ответственности за их содержание. Просьба не заливать файлы, защищенные авторскими правами, а также файлы нелегального содержания!


    _________________
    [Профиль] [ЛС]
    Показать сообщения:    
    Ответить на тему

    Текущее время: Сегодня, в 10:45

    Часовой пояс: GMT + 2



    Вы не можете начинать темы
    Вы не можете отвечать на сообщения
    Вы не можете редактировать свои сообщения
    Вы не можете удалять свои сообщения
    Вы не можете голосовать в опросах
    Вы не можете прикреплять файлы к сообщениям
    Вы не можете скачивать файлы