BitTorrentTracker PerecTracker.org
BitTorrentTracker PerecTracker.org
    
Регистрация  ·  Вход
 
 · 
Забыли пароль?

  • 30 свиданий (Татьяна Капитан) [2015, Россия, Комедия, мелодрама, WEB-DL, HD (720p)] Original

    Ответить на тему
     
    Автор Сообщение

    Flirldrerve

    Создавать темы 28-Фев-2016 03:54

           

    [Цитировать]

    30 свиданий
    «Парней много не бывает»
    5.746 / 10 5.90 / 10
    -Год выпуска: 2015
    Страна: Россия
    Жанр: Комедия, мелодрама
    Продолжительность: 01:28:36
    Перевод: Не требуется
    Оригинальная аудиодорожка: Есть
    Cубтитры: Нет
    Режиссёр: Татьяна Капитан
    Сценарий: Ирина Горбенко, Дмитрий Осмеркин, Татьяна Капитан
    Продюсер: Дмитрий Литвинов, Дмитрий Осмеркин, Анастасия Гавриш
    Оператор: Денис Аларкон Рамирес
    Композитор: Иван Севастьянов
    В ролях: Наталия Медведева, Никита Панфилов, Дмитрий Богдан, Сергей Аброскин, Ирина Гринёва, Данила Якушев, Гарик Харламов, Никита Джигурда, Сергей Баталов, Ольга Тумайкина
    Бюджет: $1 000 000
    Сборы в России: $1 388 693
    Мировая премьера: 11 февраля 2016
    Премьера (РФ): 4 февраля 2016, «Каропрокат»
    Описание: На что только не пойдешь, чтобы обрести счастье?! Невезучая Даша верит в найденный в интернете способ — в течение месяца сходить на 30 свиданий, а затем мужчина твоей мечты сам найдет тебя. Только остаться бы живой после встреч с самыми безумными кавалерами и пробовать разглядеть среди них того самого.-Качество исходника: WEB-DL 720p (NNMClub)
    Качество: WEB-DL
    Тип: HD (720p)
    Контейнер: M4V
    Видео: H.264, 1280@960x536, 2.40:1, 4 103 Kbps, 25.000 fps
    Аудио 1: Русский/Оригинальная дорожка , AAC / 2.0 / 156 Kbps / 48.0 KHz
    Аудио 2: Русский/Оригинальная дорожка , AC-3 / 5.1 / 384 Kbps / 48.0 KHz
    -

    iTunes Meta Tags

    Sort Name: 30 свиданий
    XID: Apple:vendor_id:2015-885594
    contentID: 1082665450
    Copyright: © 2016 Planeta Inform
    Screenwriters: Ирина Горбенко, Дмитрий Осмеркин, Татьяна Капитан
    Producers: Дмитрий Литвинов, Дмитрий Осмеркин, Анастасия Гавриш
    Director: Татьяна Капитан
    Cast: Наталия Медведева, Никита Панфилов, Дмитрий Богдан, Сергей Аброскин, Ирина Гринёва, Данила Якушев, Гарик Харламов, Никита Джигурда, Сергей Баталов, Ольга Тумайкина
    Studio: Аксиома Медиа, Renovatio Entertainment, Planeta Inform
    Rating: 135
    Long Description: На что только не пойдешь, чтобы обрести счастье?! Невезучая Даша верит в найденный в интернете способ - в течение месяца сходить на 30 свиданий, а затем мужчина твоей мечты сам найдет тебя. Только остаться бы живой после встреч с самыми безумными кавалерами и пробовать разглядеть среди них того самого.
    Description: На что только не пойдешь, чтобы обрести счастье?! Невезучая Даша верит в найденный в интернете способ - в течение месяца сходить на 30 свиданий, а затем мужчина твоей мечты сам найдет тебя. Только остаться бы живой после встреч с самыми безумными кавалерами и пробовать разглядеть среди них того самого.
    Release Date: 2016-02-11T08:00:00Z
    Genre: Русское кино
    Artist: Татьяна Капитан
    Name: 30 свиданий

    MediaInfo

    General
    Complete name : /Users/imac/HandBrake/30.Svidaniy.WEB-DL.720p.m4v
    Format : MPEG-4
    Codec ID : M4V  (M4V /M4A /mp42/isom)
    File size : 2.88 GiB
    Duration : 1h 28mn
    Overall bit rate mode : Variable
    Overall bit rate : 4 649 Kbps
    Movie name : 30 свиданий
    Performer : Татьяна Капитан
    Director : Татьяна Капитан
    Actor : Наталия Медведева / Никита Панфилов / Дмитрий Богдан / Сергей Аброскин / Ирина Гринёва / Данила Якушев / Гарик Харламов / Никита Джигурда / Сергей Баталов / Ольга Тумайкина
    Screenplay by : Ирина Горбенко / Дмитрий Осмеркин / Татьяна Капитан
    Producer : Дмитрий Литвинов / Дмитрий Осмеркин / Анастасия Гавриш
    Production studio : Аксиома Медиа, Renovatio Entertainment, Planeta Inform
    Genre : Русское кино
    ContentType : Short Film
    Description : На что только не пойдешь, чтобы обрести счастье?! Невезучая Даша верит в найденный в интернете способ - в течение месяца сходить на 30 свиданий, а затем мужчина твоей мечты сам найдет тебя. Только остаться бы живой после встреч с самыми безумными кавалерами и пробовать разглядеть среди них того самого.
    Recorded date : UTC 2016-02-11 08:00:00
    Encoded date : UTC 2016-02-27 22:28:26
    Tagged date : UTC 2016-02-27 22:29:43
    Copyright : © 2016 Planeta Inform
    Cover : Yes
    Rating : None
    Title/Sort : 30 свиданий
    LongDescription : На что только не пойдешь, чтобы обрести счастье?! Невезучая Даша верит в найденный в интернете способ - в течение месяца сходить на 30 свиданий, а затем мужчина твоей мечты сам найдет тебя. Только остаться бы живой после встреч с самыми безумными кавалерами и пробовать разглядеть среди них того самого.
    HDVideo : Yes
    AppleStoreCatalogID : 1082665450
    Vendor : Apple:vendor_id:2015-885594
    ContentRating : ru-movie|16+|375|
    Video #1
    ID : 1
    Format : AVC
    Format/Info : Advanced Video Codec
    Format profile : Main@L3.1
    Format settings, CABAC : No
    Format settings, ReFrames : 2 frames
    Format settings, GOP : M=2, N=90
    Codec ID : avc1
    Codec ID/Info : Advanced Video Coding
    Duration : 1h 28mn
    Bit rate : 4 103 Kbps
    Width : 960 pixels
    Height : 536 pixels
    Display aspect ratio : 2.40:1
    Frame rate mode : Constant
    Frame rate : 25.000 fps
    Color space : YUV
    Chroma subsampling : 4:2:0
    Bit depth : 8 bits
    Scan type : Progressive
    Bits/(Pixel*Frame) : 0.319
    Stream size : 2.54 GiB (88%)
    Title : Main Program
    Language : Russian
    Encoded date : UTC 2016-02-27 22:28:27
    Tagged date : UTC 2016-02-27 22:29:06
    Color range : Limited
    Color primaries : BT.709
    Transfer characteristics : BT.709
    Matrix coefficients : BT.709
    Menus : 4,5
    Video #2
    ID : 5
    Format : JPEG
    Codec ID : jpeg
    Duration : 1h 28mn
    Bit rate mode : Variable
    Bit rate : 1 009 bps
    Width : 640 pixels
    Height : 268 pixels
    Display aspect ratio : 2.40:1
    Frame rate mode : Variable
    Frame rate : 0.003 fps
    Minimum frame rate : 0.002 fps
    Maximum frame rate : 0.003 fps
    Color space : YUV
    Chroma subsampling : 4:2:0
    Bit depth : 8 bits
    Compression mode : Lossy
    Bits/(Pixel*Frame) : 1.961
    Stream size : 616 KiB (0%)
    Title : Chapter Images
    Language : Russian
    Default : No
    Encoded date : UTC 2016-02-27 22:29:09
    Tagged date : UTC 2016-02-27 22:29:09
    Menu For : 1
    Audio #1
    ID : 2
    Format : AAC
    Format/Info : Advanced Audio Codec
    Format profile : LC
    Codec ID : 40
    Duration : 1h 28mn
    Bit rate mode : Variable
    Bit rate : 156 Kbps
    Maximum bit rate : 247 Kbps
    Channel(s) : 2 channels
    Channel positions : Front: L R
    Sampling rate : 48.0 KHz
    Frame rate : 46.875 fps (1024 spf)
    Compression mode : Lossy
    Stream size : 99.2 MiB (3%)
    Title : Russian Stereo
    Language : Russian
    Default : Yes
    Alternate group : 1
    Encoded date : UTC 2016-02-27 22:28:27
    Tagged date : UTC 2016-02-27 22:28:31
    Fallback From : 3
    Audio #2
    ID : 3
    Format : AC-3
    Format/Info : Audio Coding 3
    Mode extension : CM (complete main)
    Format settings, Endianness : Big
    Codec ID : ac-3
    Duration : 1h 28mn
    Bit rate mode : Constant
    Bit rate : 384 Kbps
    Channel(s) : 6 channels
    Channel positions : Front: L C R, Side: L R, LFE
    Sampling rate : 48.0 KHz
    Frame rate : 31.250 fps (1536 spf)
    Bit depth : 16 bits
    Compression mode : Lossy
    Stream size : 243 MiB (8%)
    Title : Russian DD 5.1
    Language : Russian
    Default : Inherited From: 2
    Alternate group : 1
    Encoded date : UTC 2016-02-27 22:28:27
    Tagged date : UTC 2016-02-27 22:28:31
    Fallback To : 2
    Menu #1
    00:00:00.000 : Глава 1
    00:05:35.560 : Глава 2
    00:11:09.520 : Глава 3
    00:16:57.000 : Глава 4
    00:22:31.920 : Глава 5
    00:27:50.160 : Глава 6
    00:34:34.160 : Глава 7
    00:39:41.080 : Глава 8
    00:45:15.800 : Глава 9
    00:50:44.960 : Глава 10
    00:56:05.360 : Глава 11
    01:01:24.000 : Глава 12
    01:07:53.480 : Глава 13
    01:13:09.400 : Глава 14
    01:18:43.800 : Глава 15
    Menu #2
    ID : 4
    Codec ID : text
    Duration : 1h 28mn
    Language : Russian
    Encoded date : UTC 2016-02-27 22:29:06
    Tagged date : UTC 2016-02-27 22:29:06
    Menu For : 1
    00:00:00.000 : Глава 1
    00:05:35.560 : Глава 2
    00:11:09.520 : Глава 3
    00:16:57.000 : Глава 4
    00:22:31.920 : Глава 5
    00:27:50.160 : Глава 6
    00:34:34.160 : Глава 7
    00:39:41.080 : Глава 8
    00:45:15.800 : Глава 9
    00:50:44.960 : Глава 10
    00:56:05.360 : Глава 11
    01:01:24.000 : Глава 12
    01:07:53.480 : Глава 13
    01:13:09.400 : Глава 14
    01:18:43.800 : Глава 15
    Bit rate mode : VBR

    Скриншоты

    -

    Релиз подготовлен для просмотра на Apple TV, iPad, iPhone, iPod Touch.
    Для просмотра данного релиза на компьютере с ОС Windows рекомендуется использовать VLC media player
    Скачать .torrent

    Скачать торрент-файл бесплатно и на максимальной скорости!

    Как скачивать? · Что такое торрент? · Рейтинг и ограничения

    !ВНИМАНИЕ!
    Сайт не распространяет и не хранит электронные версии произведений, а занимается лишь лишь предоставлением доступа к создаваемому пользователями каталогу ссылок на торрент-файлы, которые содержат только списки хеш-сумм, убедительная просьба с жалобами обращаться напрямую к пользователю. Файлы для обмена на трекере предоставлены пользователями сайта, и администрация не несёт ответственности за их содержание. Просьба не заливать файлы, защищенные авторскими правами, а также файлы нелегального содержания!


    _________________
    [Профиль] [ЛС]
    Показать сообщения:    
    Ответить на тему

    Текущее время: Сегодня, в 03:26

    Часовой пояс: GMT + 2



    Вы не можете начинать темы
    Вы не можете отвечать на сообщения
    Вы не можете редактировать свои сообщения
    Вы не можете удалять свои сообщения
    Вы не можете голосовать в опросах
    Вы не можете прикреплять файлы к сообщениям
    Вы не можете скачивать файлы