BitTorrentTracker PerecTracker.org
BitTorrentTracker PerecTracker.org
    
Регистрация  ·  Вход
 
 · 
Забыли пароль?

  • Гуманитарные науки / Liberal Arts (Джош Рэднор / Josh Radnor) [2012, США, Драма, комедия, BDRip 720p] MVO (Кинопоказ) + VO (ViruseProject) + Original (Eng) + Sub (Rus, Eng)

    Ответить на тему
     
    Автор Сообщение

    Flirldrerve

    Создавать темы 28-Фев-2016 03:54

           

    [Цитировать]

    Гуманитарные науки / Liberal Arts

    -
    -Страна: США
    Студия: BCDF Pictures, Strategic Motion Ventures, Tom Sawyer Entertainment
    Жанр: Драма, комедия
    Год выпуска: 2012
    Продолжительность: 01:37:17--Перевод 1: Профессиональный (многоголосый закадровый) Кинопоказ
    Перевод 2: Одноголосый закадровый Kenum
    Cубтитры: русские (Notabenoid), английские (full, SDH)
    Оригинальная аудиодорожка: английский--Режиссер: Джош Рэднор / Josh Radnor
    В ролях: Джош Рэднор, Элизабет Олсен, Зак Эфрон, Ричард Дженкинс, Эллисон Джэнни, Элизабет Ризер, Джон Магаро, Кейт Бертон, Роберт Десидерио, Кристен Буш, Али Ан, Нед Донис, Грегг Эдельман--Описание: Сюжет повествует о мужчине тридцати пяти лет и студентке колледжа, которых объединяет взаимная любовь к книгам и музыке, но разница в возрасте мешает их отношениям.-- | | Сэмпл--Тип релиза: BDRip 720p [Liberal Arts 2012 720p BluRay x264-EbP]
    Контейнер: MKV
    Видео: MPEG-4 AVC / 5316 kbps / 1280x544 / 23,976 fps / 2,35:1 / High Profile 4.1
    Аудио 1: Russian AC3 / 2.0 / 48 kHz / 192 kbps / 16 bits |MVO, Кинопоказ|
    Аудио 2: Russian AC3 / 5.1 / 48 kHz / 640 kbps / 16 bits |Kenum|
    Аудио 3: English AC3 / 5.1 / 48 kHz / 640 kbps / 16 bits |original|
    Формат субтитров: softsub [SRT]

    MediaInfo

    Общее
    Уникальный идентификатор                 : 184688089957979050764585308143561167743 (0x8AF1A1DD3EA1CA5B9F1368B311CB537F)
    Полное имя                               : G:\HD\Гуманитарные науки.2011.BDRip.(720p).mkv
    Формат                                   : Matroska
    Версия формата                           : Version 4 / Version 2
    Размер файла                             : 4,61 Гбайт
    Продолжительность                        : 1 ч. 37 м.
    Общий поток                              : 6791 Кбит/сек
    Дата кодирования                         : UTC 2016-02-27 17:55:04
    Программа кодирования                    : mkvmerge v8.9.0 ('Father Daughter') 64bit
    Библиотека кодирования                   : libebml v1.3.3 + libmatroska v1.4.4
    Attachments                              : poster.jpg
    Видео
    Идентификатор                            : 1
    Формат                                   : AVC
    Формат/Информация                        : Advanced Video Codec
    Профиль формата                          : High@L4.1
    Параметр CABAC формата                   : Да
    Параметр ReFrames формата                : 11 кадров
    Идентификатор кодека                     : V_MPEG4/ISO/AVC
    Продолжительность                        : 1 ч. 37 м.
    Битрейт                                  : 5316 Кбит/сек
    Ширина                                   : 1280 пикселей
    Высота                                   : 544 пикселя
    Соотношение сторон                       : 2,35:1
    Режим частоты кадров                     : Постоянный
    Частота кадров                           : 23,976 (24000/1001) кадра/сек
    Цветовое пространство                    : YUV
    Субдискретизация насыщенности            : 4:2:0
    Битовая глубина                          : 8 бит
    Тип развёртки                            : Прогрессивная
    Бит/(Пиксели*Кадры)                      : 0.318
    Размер потока                            : 3,61 Гбайт (78%)
    Заголовок                                : EbP
    Библиотека кодирования                   : x264 core 128 r2216 198a7ea
    Настройки программы                      : cabac=1 / ref=11 / deblock=1:-3:-3 / analyse=0x3:0x113 / me=tesa / subme=9 / psy=1 / psy_rd=1.15:0.00 / mixed_ref=1 / me_range=16 / chroma_me=1 / trellis=2 / 8x8dct=1 / cqm=0 / deadzone=21,11 / fast_pskip=0 / chroma_qp_offset=-2 / threads=12 / lookahead_threads=2 / sliced_threads=0 / nr=0 / decimate=0 / interlaced=0 / bluray_compat=0 / constrained_intra=0 / bframes=7 / b_pyramid=2 / b_adapt=2 / b_bias=0 / direct=3 / weightb=1 / open_gop=0 / weightp=2 / keyint=250 / keyint_min=23 / scenecut=40 / intra_refresh=0 / rc=crf / mbtree=0 / crf=15.0 / qcomp=0.60 / qpmin=0 / qpmax=69 / qpstep=4 / ip_ratio=1.40 / pb_ratio=1.30 / aq=1:0.60
    Язык                                     : English
    Default                                  : Да
    Forced                                   : Нет
    Цветовой диапазон                        : Limited
    Коэффициенты матрицы                     : BT.709
    Аудио #1
    Идентификатор                            : 2
    Формат                                   : AC-3
    Формат/Информация                        : Audio Coding 3
    Расширение режима                        : CM (complete main)
    Параметр Endianness формата              : Big
    Идентификатор кодека                     : A_AC3
    Продолжительность                        : 1 ч. 37 м.
    Вид битрейта                             : Постоянный
    Битрейт                                  : 192 Кбит/сек
    Каналы                                   : 2 канала
    Расположение каналов                     : Front: L R
    Частота                                  : 48,0 КГц
    Частота кадров                           : 31,250 кадров/сек (1536 spf)
    Метод сжатия                             : С потерями
    Размер потока                            : 134 Мбайт (3%)
    Заголовок                                : MVO (Кинопоказ)
    Язык                                     : Russian
    Default                                  : Да
    Forced                                   : Нет
    Аудио #2
    Идентификатор                            : 3
    Формат                                   : AC-3
    Формат/Информация                        : Audio Coding 3
    Расширение режима                        : CM (complete main)
    Параметр Endianness формата              : Big
    Идентификатор кодека                     : A_AC3
    Продолжительность                        : 1 ч. 37 м.
    Вид битрейта                             : Постоянный
    Битрейт                                  : 640 Кбит/сек
    Каналы                                   : 6 каналов
    Расположение каналов                     : Front: L C R, Side: L R, LFE
    Частота                                  : 48,0 КГц
    Частота кадров                           : 31,250 кадров/сек (1536 spf)
    Метод сжатия                             : С потерями
    Размер потока                            : 445 Мбайт (9%)
    Заголовок                                : VO ( ViruseProject )
    Язык                                     : Russian
    Default                                  : Нет
    Forced                                   : Нет
    Аудио #3
    Идентификатор                            : 4
    Формат                                   : AC-3
    Формат/Информация                        : Audio Coding 3
    Расширение режима                        : CM (complete main)
    Параметр Endianness формата              : Big
    Идентификатор кодека                     : A_AC3
    Продолжительность                        : 1 ч. 37 м.
    Вид битрейта                             : Постоянный
    Битрейт                                  : 640 Кбит/сек
    Каналы                                   : 6 каналов
    Расположение каналов                     : Front: L C R, Side: L R, LFE
    Частота                                  : 48,0 КГц
    Частота кадров                           : 31,250 кадров/сек (1536 spf)
    Метод сжатия                             : С потерями
    Размер потока                            : 445 Мбайт (9%)
    Язык                                     : English
    Default                                  : Нет
    Forced                                   : Нет
    Текст #1
    Идентификатор                            : 5
    Формат                                   : UTF-8
    Идентификатор кодека                     : S_TEXT/UTF8
    Идентификатор кодека/Информация          : UTF-8 Plain Text
    Продолжительность                        : 1 ч. 34 м.
    Битрейт                                  : 111 бит/сек
    Count of elements                        : 1615
    Размер потока                            : 77,3 Кбайт (0%)
    Заголовок                                : Notabenoid
    Язык                                     : Russian
    Default                                  : Нет
    Forced                                   : Нет
    Текст #2
    Идентификатор                            : 6
    Формат                                   : UTF-8
    Идентификатор кодека                     : S_TEXT/UTF8
    Идентификатор кодека/Информация          : UTF-8 Plain Text
    Продолжительность                        : 1 ч. 36 м.
    Битрейт                                  : 69 бит/сек
    Count of elements                        : 1767
    Размер потока                            : 49,4 Кбайт (0%)
    Заголовок                                : English
    Язык                                     : English
    Default                                  : Нет
    Forced                                   : Нет
    Текст #3
    Идентификатор                            : 7
    Формат                                   : UTF-8
    Идентификатор кодека                     : S_TEXT/UTF8
    Идентификатор кодека/Информация          : UTF-8 Plain Text
    Продолжительность                        : 1 ч. 37 м.
    Битрейт                                  : 71 бит/сек
    Count of elements                        : 1886
    Размер потока                            : 51,2 Кбайт (0%)
    Заголовок                                : SDH
    Язык                                     : English
    Default                                  : Нет
    Forced                                   : Нет
    Меню
    00:00:00.000                             : :Chapter 01
    00:08:19.999                             : :Chapter 02
    00:15:28.927                             : :Chapter 03
    00:21:52.310                             : :Chapter 04
    00:30:03.384                             : :Chapter 05
    00:35:46.853                             : :Chapter 06
    00:43:07.501                             : :Chapter 07
    00:50:29.484                             : :Chapter 08
    00:58:29.464                             : :Chapter 09
    01:08:47.915                             : :Chapter 10
    01:20:21.525                             : :Chapter 11
    01:32:43.307                             : :Chapter 12

    Скриншоты


    Дополнительно
    Цитата:Дорожка №1 взята с этой раздачи thx: miha2154
    Цитата:
    Цитата:

    Дорожка №2 получена наложением чистого голоса на центр декодированного DTS-HD MA.
    Торент-файл перезалит 27.02.2016. Добавлен проф. перевод
    Скачать .torrent

    Скачать торрент-файл бесплатно и на максимальной скорости!

    Как скачивать? · Что такое торрент? · Рейтинг и ограничения

    !ВНИМАНИЕ!
    Сайт не распространяет и не хранит электронные версии произведений, а занимается лишь лишь предоставлением доступа к создаваемому пользователями каталогу ссылок на торрент-файлы, которые содержат только списки хеш-сумм, убедительная просьба с жалобами обращаться напрямую к пользователю. Файлы для обмена на трекере предоставлены пользователями сайта, и администрация не несёт ответственности за их содержание. Просьба не заливать файлы, защищенные авторскими правами, а также файлы нелегального содержания!


    _________________
    [Профиль] [ЛС]
    Показать сообщения:    
    Ответить на тему

    Текущее время: Сегодня, в 02:04

    Часовой пояс: GMT + 2



    Вы не можете начинать темы
    Вы не можете отвечать на сообщения
    Вы не можете редактировать свои сообщения
    Вы не можете удалять свои сообщения
    Вы не можете голосовать в опросах
    Вы не можете прикреплять файлы к сообщениям
    Вы не можете скачивать файлы