Register  ·  Log in
Forgot password?

  • Омерзительная восьмерка / The Hateful Eight (Квентин Тарантино / Quentin Tarantino) [2015, США, вестерн, DVDScreener] DVO (Parovoz Production)

    Reply to topic
    Author Message


    Post 28-Feb-2016 04:54



    Омерзительная восьмерка / The Hateful Eight
    Страна: США
    Жанр: вестерн
    Год выпуска: 2015
    Продолжительность: 02:47:49
    Перевод: Любительский (двухголосый закадровый) Parovoz Production
    Cубтитры: нет
    Режиссер: Квентин Тарантино / Quentin Tarantino
    В ролях: Курт Рассел, Сэмюэл Л. Джексон, Тим Рот, Майкл Мэдсен, Дженнифер Джейсон Ли, Ченнинг Татум, Уолтон Гоггинс, Зои Белл, Брюс Дерн, Демиан Бишир
    Описание: США после Гражданской войны. Легендарный охотник за головами Джон Рут по кличке Вешатель конвоирует заключенную. По пути к ним прибивается еще один охотник. Снежная буря вынуждает всех троих искать укрытие в лавке на отшибе, где уже расположилась весьма пестрая компания: генерал, шериф, мексиканец, француз и ковбой… И один из них — не тот, за кого себя выдает.
    Доп. информация: Отличие от
    - полное отсутствие рекламы;
    - начало не вырезано.
    Качество видео: DVDScreener
    Формат видео: AVI
    Видео: 720x260, 29,970 fps,XviD,1087 kb/s
    Аудио: 48 kHz, AC3, 128 kb/s (2 ch)
    Исправлено, перезалито.


    Complete name : D:\The.Hateful.Eight.2015.avi
    Format : AVI
    Format/Info : Audio Video Interleave
    File size : 1.44 GiB
    Duration : 2h 47mn
    Overall bit rate : 1 227 Kbps
    Writing application : AVI-Mux GUI 1.17.7, Aug 8 2006 20:59:17
    Writing library : VirtualDub build 30009/release
    ID : 0
    Format : MPEG-4 Visual
    Format profile : Advanced Simple@L5
    Format settings, BVOP : 2
    Format settings, QPel : No
    Format settings, GMC : No warppoints
    Format settings, Matrix : Default (H.263)
    Muxing mode : Packed bitstream
    Codec ID : XVID
    Codec ID/Hint : XviD
    Duration : 2h 47mn
    Bit rate : 1 088 Kbps
    Width : 720 pixels
    Height : 260 pixels
    Display aspect ratio : 2.769
    Frame rate : 29.970 fps
    Color space : YUV
    Chroma subsampling : 4:2:0
    Bit depth : 8 bits
    Scan type : Progressive
    Compression mode : Lossy
    Bits/(Pixel*Frame) : 0.194
    Stream size : 1.28 GiB (89%)
    Writing library : XviD 73
    ID : 1
    Format : AC-3
    Format/Info : Audio Coding 3
    Mode extension : CM (complete main)
    Format settings, Endianness : Big
    Codec ID : 2000
    Duration : 2h 47mn
    Bit rate mode : Constant
    Bit rate : 128 Kbps
    Channel(s) : 2 channels
    Channel positions : Front: L R
    Sampling rate : 48.0 KHz
    Compression mode : Lossy
    Stream size : 154 MiB (10%)
    Alignment : Aligned on interleaves
    Interleave, duration : 33 ms (1.00 video frame)
    Interleave, preload duration : 512 ms


    Download .torrent

    Download free and at maximum speed!

    How to Download? · What is a torrent? · Ratings and Limitations

    The site does not extend and does not store electronic(digital) versions of products, and only gives access to a reference catalogue created by users on torrent-files which contain only lists of the hash-sums, the earnest entreaty, with complaints(abuse) to access directly to the user. Files for an exchange on tracker are given by users of a site, and the administration does not bear the responsibility for their maintenance. The request to not fill in the files protected by copyrights, and also files of the illegal maintenance!

    [Profile] [PM]
    Display posts from previous:    
    Reply to topic

    The time now is: Today 01:55

    All times are GMT + 3 Hours

    You cannot post new topics in this forum
    You cannot reply to topics in this forum
    You cannot edit your posts in this forum
    You cannot delete your posts in this forum
    You cannot vote in polls in this forum
    You cannot attach files in this forum
    You cannot download files in this forum