BitTorrentTracker PerecTracker.org
BitTorrentTracker PerecTracker.org
    
Регистрация  ·  Вход
 
 · 
Забыли пароль?

  • Гуманитарные науки / Liberal Arts (Джош Рэднор / Josh Radnor) [2012, США, Драма, комедия, BDRemux 1080p] MVO (Кинопоказ) + VO (ViruseProject) + Original (Eng) + Sub (Rus, Eng)

    Ответить на тему
     
    Автор Сообщение

    Flirldrerve

    Создавать темы 27-Фев-2016 23:42

           

    [Цитировать]

    Гуманитарные науки / Liberal Arts

    -
    -Страна: США
    Студия: BCDF Pictures, Strategic Motion Ventures, Tom Sawyer Entertainment
    Жанр: Драма, комедия
    Год выпуска: 2012
    Продолжительность: 01:37:17--Перевод 1: Профессиональный (многоголосый закадровый) Кинопоказ
    Перевод 2: Одноголосый закадровый Kenum
    Cубтитры: русские (Notabenoid), английские (full, SDH)
    Оригинальная аудиодорожка: английский--Режиссер: Джош Рэднор / Josh Radnor
    В ролях: Джош Рэднор, Элизабет Олсен, Зак Эфрон, Ричард Дженкинс, Эллисон Джэнни, Элизабет Ризер, Джон Магаро, Кейт Бертон, Роберт Десидерио, Кристен Буш, Али Ан, Нед Донис, Грегг Эдельман--Описание: Сюжет повествует о мужчине тридцати пяти лет и студентке колледжа, которых объединяет взаимная любовь к книгам и музыке, но разница в возрасте мешает их отношениям.-- | | Сэмпл--Тип релиза: BDRemux 1080p [Liberal Arts 2012 LIMITED COMPLETE BLURAY-LAZERS]
    Контейнер: MKV
    Видео: MPEG-4 AVC / 21954 kbps / 1920x1080 / 23,976 fps / 16:9 / High Profile 4.1
    Аудио 1: Russian AC3 / 2.0 / 48 kHz / 192 kbps / 16 bits |MVO, Кинопоказ|
    Аудио 2: Russian DTS-HD Master Audio / 5.1 / 48 kHz / 1682 kbps / 16 bits (DTS Core: 5.1 / 48 kHz / 1510 kbps / 16 bits) |Kenum|
    Аудио 3: English DTS-HD Master Audio / 5.1 / 48 kHz / 1755 kbps / 16 bits (DTS Core: 5.1 / 48 kHz / 1510 kbps / 16 bits) |original|
    Формат субтитров: softsub [SRT]

    MediaInfo

    Общее
    Уникальный идентификатор                 : 236929931278174408479995975525425863850 (0xB23F0B80FE2B0EF6AC4F008FC719DCAA)
    Полное имя                               : G:\HD\Гуманитарные науки.2012.Blu-Ray.Remux.(1080p).mkv
    Формат                                   : Matroska
    Версия формата                           : Version 4 / Version 2
    Размер файла                             : 17,4 Гбайт
    Продолжительность                        : 1 ч. 37 м.
    Режим общего битрейта                    : Переменный
    Общий поток                              : 25,6 Мбит/сек
    Дата кодирования                         : UTC 2016-02-27 15:42:19
    Программа кодирования                    : mkvmerge v8.9.0 ('Father Daughter') 64bit
    Библиотека кодирования                   : libebml v1.3.3 + libmatroska v1.4.4
    Attachments                              : poster.jpg
    Видео
    Идентификатор                            : 1
    Формат                                   : AVC
    Формат/Информация                        : Advanced Video Codec
    Профиль формата                          : High@L4.1
    Параметр CABAC формата                   : Да
    Параметр ReFrames формата                : 4 кадра
    Параметр GOP формата                     : M=3, N=24
    Идентификатор кодека                     : V_MPEG4/ISO/AVC
    Продолжительность                        : 1 ч. 37 м.
    Вид битрейта                             : Переменный
    Битрейт                                  : 22,0 Мбит/сек
    Максимальный битрейт                     : 35,0 Мбит/сек
    Ширина                                   : 1920 пикселей
    Высота                                   : 1080 пикселей
    Соотношение сторон                       : 16:9
    Режим частоты кадров                     : Постоянный
    Частота кадров                           : 23,976 (24000/1001) кадра/сек
    Стандарт вещания                         : NTSC
    Цветовое пространство                    : YUV
    Субдискретизация насыщенности            : 4:2:0
    Битовая глубина                          : 8 бит
    Тип развёртки                            : Прогрессивная
    Бит/(Пиксели*Кадры)                      : 0.442
    Размер потока                            : 14,9 Гбайт (86%)
    Default                                  : Да
    Forced                                   : Нет
    Цветовой диапазон                        : Limited
    Основные цвета                           : BT.709
    Характеристики трансфера                 : BT.709
    Коэффициенты матрицы                     : BT.709
    Аудио #1
    Идентификатор                            : 2
    Формат                                   : AC-3
    Формат/Информация                        : Audio Coding 3
    Расширение режима                        : CM (complete main)
    Параметр Endianness формата              : Big
    Идентификатор кодека                     : A_AC3
    Продолжительность                        : 1 ч. 37 м.
    Вид битрейта                             : Постоянный
    Битрейт                                  : 192 Кбит/сек
    Каналы                                   : 2 канала
    Расположение каналов                     : Front: L R
    Частота                                  : 48,0 КГц
    Частота кадров                           : 31,250 кадров/сек (1536 spf)
    Метод сжатия                             : С потерями
    Размер потока                            : 134 Мбайт (1%)
    Заголовок                                : MVO (Кинопоказ)
    Язык                                     : Russian
    Default                                  : Да
    Forced                                   : Нет
    Аудио #2
    Идентификатор                            : 3
    Формат                                   : DTS
    Формат/Информация                        : Digital Theater Systems
    Профиль формата                          : MA / Core
    Режим                                    : 16
    Параметр Endianness формата              : Big
    Идентификатор кодека                     : A_DTS
    Продолжительность                        : 1 ч. 37 м.
    Вид битрейта                             : Переменный / Постоянный
    Битрейт                                  : 1682 Кбит/сек / 1509 Кбит/сек
    Каналы                                   : 6 каналов
    Расположение каналов                     : Front: L C R, Side: L R, LFE
    Частота                                  : 48,0 КГц
    Частота кадров                           : 93,750 кадра/сек (512 spf)
    Битовая глубина                          : 16 бит
    Метод сжатия                             : Без потерь / Lossy
    Размер потока                            : 1,14 Гбайт (7%)
    Заголовок                                : VO ( ViruseProject )
    Язык                                     : Russian
    Default                                  : Нет
    Forced                                   : Нет
    Аудио #3
    Идентификатор                            : 4
    Формат                                   : DTS
    Формат/Информация                        : Digital Theater Systems
    Профиль формата                          : MA / Core
    Режим                                    : 16
    Параметр Endianness формата              : Big
    Идентификатор кодека                     : A_DTS
    Продолжительность                        : 1 ч. 37 м.
    Вид битрейта                             : Переменный / Постоянный
    Битрейт                                  : 1757 Кбит/сек / 1509 Кбит/сек
    Каналы                                   : 6 каналов
    Расположение каналов                     : Front: L C R, Side: L R, LFE
    Частота                                  : 48,0 КГц
    Частота кадров                           : 93,750 кадра/сек (512 spf)
    Битовая глубина                          : 16 бит
    Метод сжатия                             : Без потерь / Lossy
    Размер потока                            : 1,19 Гбайт (7%)
    Язык                                     : English
    Default                                  : Нет
    Forced                                   : Нет
    Текст #1
    Идентификатор                            : 5
    Формат                                   : UTF-8
    Идентификатор кодека                     : S_TEXT/UTF8
    Идентификатор кодека/Информация          : UTF-8 Plain Text
    Продолжительность                        : 1 ч. 34 м.
    Битрейт                                  : 111 бит/сек
    Count of elements                        : 1615
    Размер потока                            : 77,3 Кбайт (0%)
    Заголовок                                : Notabenoid
    Язык                                     : Russian
    Default                                  : Нет
    Forced                                   : Нет
    Текст #2
    Идентификатор                            : 6
    Формат                                   : UTF-8
    Идентификатор кодека                     : S_TEXT/UTF8
    Идентификатор кодека/Информация          : UTF-8 Plain Text
    Продолжительность                        : 1 ч. 36 м.
    Битрейт                                  : 69 бит/сек
    Count of elements                        : 1767
    Размер потока                            : 49,4 Кбайт (0%)
    Заголовок                                : English
    Язык                                     : English
    Default                                  : Нет
    Forced                                   : Нет
    Текст #3
    Идентификатор                            : 7
    Формат                                   : UTF-8
    Идентификатор кодека                     : S_TEXT/UTF8
    Идентификатор кодека/Информация          : UTF-8 Plain Text
    Продолжительность                        : 1 ч. 37 м.
    Битрейт                                  : 71 бит/сек
    Count of elements                        : 1886
    Размер потока                            : 51,2 Кбайт (0%)
    Заголовок                                : SDH
    Язык                                     : English
    Default                                  : Нет
    Forced                                   : Нет
    Меню
    00:00:00.000                             : :Chapter 01
    00:08:19.999                             : :Chapter 02
    00:15:28.927                             : :Chapter 03
    00:21:52.310                             : :Chapter 04
    00:30:03.384                             : :Chapter 05
    00:35:46.853                             : :Chapter 06
    00:43:07.501                             : :Chapter 07
    00:50:29.484                             : :Chapter 08
    00:58:29.464                             : :Chapter 09
    01:08:47.915                             : :Chapter 10
    01:20:21.525                             : :Chapter 11
    01:32:43.307                             : :Chapter 12

    Скриншоты


    Дополнительно
    Цитата:Дорожка №1 взята с этой раздачи thx: miha2154
    Цитата:
    Цитата:

    Дорожка №2 получена наложением чистого голоса на центр декодированного DTS-HD MA.
    Торент-файл перезалит 27.02.2016. Добавлен проф. перевод
    Скачать .torrent

    Скачать торрент-файл бесплатно и на максимальной скорости!

    Как скачивать? · Что такое торрент? · Рейтинг и ограничения

    !ВНИМАНИЕ!
    Сайт не распространяет и не хранит электронные версии произведений, а занимается лишь лишь предоставлением доступа к создаваемому пользователями каталогу ссылок на торрент-файлы, которые содержат только списки хеш-сумм, убедительная просьба с жалобами обращаться напрямую к пользователю. Файлы для обмена на трекере предоставлены пользователями сайта, и администрация не несёт ответственности за их содержание. Просьба не заливать файлы, защищенные авторскими правами, а также файлы нелегального содержания!


    _________________
    [Профиль] [ЛС]
    Показать сообщения:    
    Ответить на тему

    Текущее время: Сегодня, в 02:53

    Часовой пояс: GMT + 2



    Вы не можете начинать темы
    Вы не можете отвечать на сообщения
    Вы не можете редактировать свои сообщения
    Вы не можете удалять свои сообщения
    Вы не можете голосовать в опросах
    Вы не можете прикреплять файлы к сообщениям
    Вы не можете скачивать файлы