BitTorrentTracker PerecTracker.org
BitTorrentTracker PerecTracker.org
    
Регистрация  ·  Вход
 
 · 
Забыли пароль?

  • Смерть в раю / Death In Paradise / Сезон: 5 / Серии: 1-8 из 8 (Эдвард Беннетт, Роджер Симонс, Одри Кук) [2016, Детектив, комедия, криминал, HDTVRip 1080p] DVO (Sunshine Studio) + Original + Subs (Rus, Eng)

    Ответить на тему
     
    Автор Сообщение

    rechyn

    Создавать темы 27-Фев-2016 23:37

           

    [Цитировать]

    Смерть в раю / Death In Paradise--Год выпуска: 2016 (5 сезон)
    Страна: Великобритания, Франция
    Жанр: Детектив, комедия, криминал
    Продолжительность: ~ 01:00:00
    Перевод: Любительский (двухголосый закадровый) (Sunshine Studio)
    Субтитры: Русские, английские--Режиссёр: Эдвард Беннет/ Edward Bennett, Роджер Симонс/ Roger Simonsz, Одри Кук /Audrey Cooke--В ролях: Kris Marshall (Детектив-инспектор Хэмфри Гудман), Danny John-Jules (Офицер Дуэйн Майерс), Joséphine Jobert (Сержант-инспектор Флоренс Касселл), Tobi Bakare (Офицер Джей-Пи Хупер), Don Warrington (Комиссар Селвин Паттерсон), Élizabeth Bourgine (Кэтрин Боде), Fola Evans-Akingbola (Рози), и др.--Описание: На прекрасном карибском острове Сент-Мари по-прежнему солнечно. Инспектор Хэмфри Гудман отлично вписался в коллектив, завоевав заслуженное доверие и симпатию коллег. Остальной состав полицейского участка тоже претерпел изменения. Вместо яркой и знойной Камилы Боде в должность полицейского сержанта вступает не менее симпатичная и очаровательная Флоренс Кассель, а на замену Фиделю Бесту пришёл немного робкий, но наделённый множеством талантов, констебль Пи-Джей Хупер, который ни в чём не уступает вечно неунывающему напарнику Дуэйну Майерсу. Обжившись на острове, инспектор Гудмен приобретает "яхту", чтобы "ходить под парусами" и стать стопроцентным островитянином...--

    Доп. информация

    Перевод субтитров: Alex_ander, Alizzza, jumay, nataliya, izolenta, Outbreak_m, Mishutka, victoria_vn, Podruga, cherednichen, Rosalinne4k, alf05
    Из аудиодорожки изъяты рекламные вставки.
    --Качество: HDTVRip 1080p
    Формат: MKV
    Видео кодек: H.264
    Аудио кодек: AC3
    Видео: MPEG-4 AVC, 1920x1080 (16:9), 25.000 fps, ~ 6500 kbps, 0.128 bpp
    Аудио 1: [Русский] AC3, 48 kHz, 2 ch, 192 kbps (Sunshine Studio)
    Аудио 2: [Английский] AC3, 48 kHz, 2 ch, 192 kbps
    Субтитры: Русские (1-6 серии), английские (SRT)
    ----

    MediaInfo

    General
    Unique ID                   : 250074026275463659857130587067676779023 (0xBC22816BD6BBF7D18CDA17885FC6620F)
    Complete name               : I:\...\Death.In.Paradise.s05.1080p.HDTV_MediaClub\Death.in.paradise.s05e01.1080p.HDTV.Rus.Eng_MediaClub.mkv
    Format                      : Matroska
    Format version              : Version 4 / Version 2
    File size                   : 2.87 GiB
    Duration                    : 58mn 34s
    Overall bit rate            : 7 024 Kbps
    Movie name                  : ReJIiZ MediaClub
    Encoded date                : UTC 2016-01-27 01:44:11
    Writing application         : mkvmerge v7.5.0 ('Glass Culture') 64bit built on Jan  4 2015 16:48:44
    Writing library             : libebml v1.3.1 + libmatroska v1.4.2
    Video
    ID                          : 1
    Format                      : AVC
    Format/Info                 : Advanced Video Codec
    Format profile              : High@L4.1
    Format settings, CABAC      : Yes
    Format settings, ReFrames   : 4 frames
    Codec ID                    : V_MPEG4/ISO/AVC
    Duration                    : 58mn 33s
    Bit rate                    : 6 638 Kbps
    Width                       : 1 920 pixels
    Height                      : 1 080 pixels
    Display aspect ratio        : 16:9
    Frame rate mode             : Constant
    Frame rate                  : 25.000 fps
    Color space                 : YUV
    Chroma subsampling          : 4:2:0
    Bit depth                   : 8 bits
    Scan type                   : Progressive
    Bits/(Pixel*Frame)          : 0.128
    Stream size                 : 2.72 GiB (94%)
    Writing library             : x264 core 148 r2638 7599210
    Encoding settings           : cabac=1 / ref=4 / deblock=1:-2:-2 / analyse=0x3:0x133 / me=umh / subme=8 / psy=1 / psy_rd=1.00:0.00 / mixed_ref=1 / me_range=16 / chroma_me=1 / trellis=2 / 8x8dct=1 / cqm=0 / deadzone=21,11 / fast_pskip=0 / chroma_qp_offset=-2 / threads=18 / lookahead_threads=3 / sliced_threads=0 / nr=0 / decimate=1 / interlaced=0 / bluray_compat=0 / constrained_intra=0 / bframes=3 / b_pyramid=2 / b_adapt=2 / b_bias=0 / direct=3 / weightb=1 / open_gop=0 / weightp=2 / keyint=250 / keyint_min=25 / scenecut=40 / intra_refresh=0 / rc_lookahead=50 / rc=crf / mbtree=1 / crf=17.0 / qcomp=0.60 / qpmin=0 / qpmax=69 / qpstep=4 / ip_ratio=1.40 / aq=1:1.00
    Language                    : English
    Default                     : Yes
    Forced                      : No
    Color range                 : Limited
    Matrix coefficients         : BT.709
    Audio #1
    ID                          : 2
    Format                      : AC-3
    Format/Info                 : Audio Coding 3
    Mode extension              : CM (complete main)
    Format settings, Endianness : Big
    Codec ID                    : A_AC3
    Duration                    : 58mn 33s
    Bit rate mode               : Constant
    Bit rate                    : 192 Kbps
    Channel(s)                  : 2 channels
    Channel positions           : Front: L R
    Sampling rate               : 48.0 KHz
    Frame rate                  : 31.250 fps (1536 spf)
    Compression mode            : Lossy
    Stream size                 : 80.4 MiB (3%)
    Title                       : Sunshine Studio
    Language                    : Russian
    Default                     : Yes
    Forced                      : No
    Audio #2
    ID                          : 3
    Format                      : AC-3
    Format/Info                 : Audio Coding 3
    Mode extension              : CM (complete main)
    Format settings, Endianness : Big
    Codec ID                    : A_AC3
    Duration                    : 58mn 33s
    Bit rate mode               : Constant
    Bit rate                    : 192 Kbps
    Channel(s)                  : 2 channels
    Channel positions           : Front: L R
    Sampling rate               : 48.0 KHz
    Frame rate                  : 31.250 fps (1536 spf)
    Compression mode            : Lossy
    Delay relative to video     : 240ms
    Stream size                 : 80.4 MiB (3%)
    Language                    : English
    Default                     : No
    Forced                      : No
    Text #1
    ID                          : 4
    Format                      : UTF-8
    Codec ID                    : S_TEXT/UTF8
    Codec ID/Info               : UTF-8 Plain Text
    Duration                    : 58mn 15s
    Bit rate                    : 164 bps
    Count of elements           : 1159
    Stream size                 : 70.3 KiB (0%)
    Language                    : Russian
    Default                     : No
    Forced                      : No
    Text #2
    ID                          : 5
    Format                      : UTF-8
    Codec ID                    : S_TEXT/UTF8
    Codec ID/Info               : UTF-8 Plain Text
    Duration                    : 58mn 15s
    Bit rate                    : 98 bps
    Count of elements           : 1172
    Stream size                 : 41.9 KiB (0%)
    Language                    : English
    Default                     : No
    Forced                      : No
    --

    Скриншоты



    Скачать .torrent

    Скачать торрент-файл бесплатно и на максимальной скорости!

    Как скачивать? · Что такое торрент? · Рейтинг и ограничения

    !ВНИМАНИЕ!
    Сайт не распространяет и не хранит электронные версии произведений, а занимается лишь лишь предоставлением доступа к создаваемому пользователями каталогу ссылок на торрент-файлы, которые содержат только списки хеш-сумм, убедительная просьба с жалобами обращаться напрямую к пользователю. Файлы для обмена на трекере предоставлены пользователями сайта, и администрация не несёт ответственности за их содержание. Просьба не заливать файлы, защищенные авторскими правами, а также файлы нелегального содержания!


    _________________
    [Профиль] [ЛС]
    Показать сообщения:    
    Ответить на тему

    Текущее время: Сегодня, в 12:40

    Часовой пояс: GMT + 2



    Вы не можете начинать темы
    Вы не можете отвечать на сообщения
    Вы не можете редактировать свои сообщения
    Вы не можете удалять свои сообщения
    Вы не можете голосовать в опросах
    Вы не можете прикреплять файлы к сообщениям
    Вы не можете скачивать файлы