BitTorrentTracker PerecTracker.org
BitTorrentTracker PerecTracker.org
    
Регистрация  ·  Вход
 
 · 
Забыли пароль?

  • Черный код / Реанимация / Code Black / Сезон: 1 / Серии: 1-18 из 18 (Ли Роуз, Дэвид Семел, Адам Кэйн) [2015, драма, WEB-DLRip] MVO (BaibaKo) + Original

    Ответить на тему
     
    Автор Сообщение

    rechyn

    Создавать темы 27-Фев-2016 23:31

           

    [Цитировать]

    -Черный код | Code Black-Год выпуска: 2015
    Страна: США
    Жанр: драма
    Продолжительность: ~ 00:43:00-Перевод: Профессиональный (многоголосый закадровый) | BaibaKo-Режиссёр: Ли Роуз, Дэвид Семел, Адам Кэйн-В ролях: Мелани Чандра, Бен Холлингсворт, Портер Харрис, Анджела Релусио, Марша Гей Харден, Тео Бро, Раза Джеффри, Теа Эмили Нельсон, Бонни Соммервиль, Луис Гусман и др.-Описание: Сюжет повествует о госпитале в Лос-Анджелесе, медицинскому персоналу которого приходится сталкиваться с постоянными сбоями в системе управления больницей. Но эти неприятности, которые порой перерастают в настоящие катастрофы, не мешают главным героям день за днём спасать жизни многочисленных пациентов.--| Ссылка на предыдущие и альтернативные раздачи-Качество: WEB-DLRip
    Формат: AVI
    Видео: XviD, ~ 1500 kbps, 720x400 (16:9), 23,976 fps
    Аудио 1: MP3, 48,0 КГц, 2 ch, 192 kbps - Rus
    Аудио 2: MP3, 48,0 КГц, 2 ch, 192 kbps - Eng
    Субтитры: отсутствуют-

    Релиз

    BaibaKo
    Перевод: Никита Коваль и Фиона Кудреватых
    Озвучка: Татьяна Оболевич, Светлана Доманова, Сергей Корчак и Руслан Иванов
    Монтаж: Павел Дежин
    Примечание: Видео без рекламных роликов.

    MediaInfo

    Общее
    Полное имя                               : D:\загрузки\Code.Black(S01) BaibaKo\Code.Black.s01e01.WEB-DLRip.XviD.Rus.Eng.BaibaKo.avi
    Формат                                   : AVI
    Формат/Информация                        : Audio Video Interleave
    Размер файла                             : 593 Мбайт
    Продолжительность                        : 44 м.
    Общий поток                              : 1881 Кбит/сек
    Программа кодирования                    : VirtualDubMod 1.5.10.3 | www.virtualdub-fr.org || (build 2550/release)
    Библиотека кодирования                   : VirtualDubMod build 2550/release
    Видео
    Идентификатор                            : 0
    Формат                                   : MPEG-4 Visual
    Профиль формата                          : Advanced Simple@L5
    Параметр BVOP формата                    : 2
    Параметр QPel формата                    : Нет
    Параметр GMC формата                     : Без точки перехода
    Параметр матрицы формата                 : Default (H.263)
    Идентификатор кодека                     : XVID
    Идентификатор кодека/Подсказка           : XviD
    Продолжительность                        : 44 м.
    Битрейт                                  : 1483 Кбит/сек
    Ширина                                   : 720 пикселей
    Высота                                   : 400 пикселей
    Соотношение сторон                       : 16:9
    Частота кадров                           : 23,976 кадра/сек
    Цветовое пространство                    : YUV
    Субдискретизация насыщенности            : 4:2:0
    Битовая глубина                          : 8 бит
    Тип развёртки                            : Прогрессивная
    Метод сжатия                             : С потерями
    Бит/(Пиксели*Кадры)                      : 0.215
    Размер потока                            : 468 Мбайт (79%)
    Библиотека кодирования                   : XviD 65
    Аудио #1
    Идентификатор                            : 1
    Формат                                   : MPEG Audio
    Версия формата                           : Version 1
    Профиль формата                          : Layer 3
    Режим                                    : Joint stereo
    Расширение режима                        : MS Stereo
    Идентификатор кодека                     : 55
    Идентификатор кодека/Подсказка           : MP3
    Продолжительность                        : 44 м.
    Вид битрейта                             : Постоянный
    Битрейт                                  : 192 Кбит/сек
    Каналы                                   : 2 канала
    Частота                                  : 48,0 КГц
    Метод сжатия                             : С потерями
    Размер потока                            : 60,5 Мбайт (10%)
    Выравнивание                             : Соединение по промежуткам
    Продолжительность промежутка             : 42  мс. (1,00 видеокадр)
    Время предзагрузки промежутка            : 504  мс.
    Библиотека кодирования                   : LAME3.98.4UUUUUU%Ь
    Аудио #2
    Идентификатор                            : 2
    Формат                                   : MPEG Audio
    Версия формата                           : Version 1
    Профиль формата                          : Layer 3
    Режим                                    : Joint stereo
    Расширение режима                        : MS Stereo
    Идентификатор кодека                     : 55
    Идентификатор кодека/Подсказка           : MP3
    Продолжительность                        : 44 м.
    Вид битрейта                             : Постоянный
    Битрейт                                  : 192 Кбит/сек
    Каналы                                   : 2 канала
    Частота                                  : 48,0 КГц
    Метод сжатия                             : С потерями
    Размер потока                            : 60,5 Мбайт (10%)
    Выравнивание                             : Соединение по промежуткам
    Продолжительность промежутка             : 42  мс. (1,00 видеокадр)
    Время предзагрузки промежутка            : 504  мс.

    Скриншоты

    -
    Скачать .torrent

    Скачать торрент-файл бесплатно и на максимальной скорости!

    Как скачивать? · Что такое торрент? · Рейтинг и ограничения

    !ВНИМАНИЕ!
    Сайт не распространяет и не хранит электронные версии произведений, а занимается лишь лишь предоставлением доступа к создаваемому пользователями каталогу ссылок на торрент-файлы, которые содержат только списки хеш-сумм, убедительная просьба с жалобами обращаться напрямую к пользователю. Файлы для обмена на трекере предоставлены пользователями сайта, и администрация не несёт ответственности за их содержание. Просьба не заливать файлы, защищенные авторскими правами, а также файлы нелегального содержания!


    _________________
    [Профиль] [ЛС]
    Показать сообщения:    
    Ответить на тему

    Текущее время: Сегодня, в 14:58

    Часовой пояс: GMT + 2



    Вы не можете начинать темы
    Вы не можете отвечать на сообщения
    Вы не можете редактировать свои сообщения
    Вы не можете удалять свои сообщения
    Вы не можете голосовать в опросах
    Вы не можете прикреплять файлы к сообщениям
    Вы не можете скачивать файлы