BitTorrentTracker PerecTracker.org
BitTorrentTracker PerecTracker.org
    
Регистрация  ·  Вход
 
 · 
Забыли пароль?

  • Крампус / Krampus (Майкл Догерти / Michael Dougherty) [2015, США, Новая Зеландия, ужасы, фэнтези, комедия, WEB-DL 720p] Dub (iTunes) + Sub Rus, Eng + Original Eng

    Ответить на тему
     
    Автор Сообщение

    Flirldrerve

    Создавать темы 27-Фев-2016 19:30

           

    [Цитировать]

    Крампус / Krampus
    Страна: США, Новая Зеландия
    Жанр: ужасы, фэнтези, комедия
    Год выпуска: 2015
    Продолжительность: 01:37:40
      -Перевод: Профессиональный (дублированный) iTunes
      Cубтитры: русские, английские
      Оригинальная аудиодорожка: английский
        -Режиссер: Майкл Догерти / Michael Dougherty
          -В ролях: Адам Скотт, Тони Коллетт, Дэвид Кокнер, Эллисон Толман, Кончата Феррелл, Эмджей Энтони, Стефания Оуэн, Криста Штадлер, Марк Аткин
          Описание: История о демоне, который во время Рождества выискивает непослушных детей, чтобы наказать их.
            -Релиз от:
              -Тип релиза: WEB-DL 720p
              Контейнер: MKV
                -Видео: MPEG4 Video (H264) 1280x534p, ~ 3953 kbps, 23.976 fps, 0.241 Bits/(Pixel*Frame)
                  -Аудио 1: Russian: 48 kHz, AC3, 3/2 (L,C,R,l,r) + LFE ch, ~384.00 kbps avg
                  Аудио 2: English: 48 kHz, AC3, 3/2 (L,C,R,l,r) + LFE ch, ~384.00 kbps avg

                  MediaInfo

                  General
                  Уникальный идентификатор : 190590424577908246821047038420871220631 (0x8F62616DBE67C3BF99F7D68184470D97)
                  Полное имя : E:\Krampus.720p.WEB-DL.mkv
                  Формат : Matroska
                  Версия формата : Version 2
                  Размер файла : 3.29 GiB
                  Продолжительность : 1h 37mn
                  Общий поток : 4 817 Kbps
                  Название фильма : Krampus (2015) - Release for HDCLUB
                  Дата кодирования : UTC 2016-02-25 00:24:30
                  Программа кодирования : mkvmerge v3.4.0 ('Rapunzel') built on May 15 2010 09:38:20
                  Библиотека кодирования : libebml v0.8.0 + libmatroska v0.9.0
                  Video
                  Идентификатор : 1
                  Формат : AVC
                  Формат/Информация : Advanced Video Codec
                  Профиль формата : Main@L3.1
                  Параметр CABAC формата : No
                  Параметр ReFrames формата : 2 frames
                  Идентификатор кодека : V_MPEG4/ISO/AVC
                  Продолжительность : 1h 37mn
                  Битрейт : 3 953 Kbps
                  Ширина : 1 280 pixels
                  Высота : 534 pixels
                  Соотношение сторон : 2.40:1
                  Режим частоты кадров : Constant
                  Частота кадров : 23.976 fps
                  Цветовое пространство : YUV
                  Субдискретизация насыщенности : 4:2:0
                  Битовая глубина : 8 bits
                  Тип развёртки : Progressive
                  Бит/(Пиксели*Кадры) : 0.241
                  Размер потока : 2.70 GiB (82%)
                  Заголовок : Krampus (2015) - Release for HDCLUB
                  Язык : English
                  Default : Yes
                  Forced : No
                  Основные цвета : BT.709
                  Характеристики трансфера : BT.709
                  Коэффициенты матрицы : BT.709
                  colour_range : Limited
                  Audio #1
                  Идентификатор : 2
                  Формат : AC-3
                  Формат/Информация : Audio Coding 3
                  Расширение режима : CM (complete main)
                  Параметр Endianness формата : Big
                  Идентификатор кодека : A_AC3
                  Продолжительность : 1h 37mn
                  Вид битрейта : Constant
                  Битрейт : 384 Kbps
                  Каналы : 6 channels
                  Расположение каналов : Front: L C R, Side: L R, LFE
                  Частота : 48.0 KHz
                  Битовая глубина : 16 bits
                  Метод сжатия : Lossy
                  Размер потока : 268 MiB (8%)
                  Заголовок : AC3 5.1 @ 384 kbps - DUB, iTunes
                  Язык : Russian
                  Default : Yes
                  Forced : No
                  Audio #2
                  Идентификатор : 3
                  Формат : AC-3
                  Формат/Информация : Audio Coding 3
                  Расширение режима : CM (complete main)
                  Параметр Endianness формата : Big
                  Идентификатор кодека : A_AC3
                  Продолжительность : 1h 37mn
                  Вид битрейта : Constant
                  Битрейт : 384 Kbps
                  Каналы : 6 channels
                  Расположение каналов : Front: L C R, Side: L R, LFE
                  Частота : 48.0 KHz
                  Битовая глубина : 16 bits
                  Метод сжатия : Lossy
                  Размер потока : 268 MiB (8%)
                  Заголовок : AC3 5.1 @ 384 kbps
                  Язык : English
                  Default : No
                  Forced : No
                  Text #1
                  Идентификатор : 4
                  Формат : UTF-8
                  Идентификатор кодека : S_TEXT/UTF8
                  Идентификатор кодека/Информация : UTF-8 Plain Text
                  Заголовок : Forced, iTunes
                  Язык : Russian
                  Default : Yes
                  Forced : No
                  Text #2
                  Идентификатор : 5
                  Формат : UTF-8
                  Идентификатор кодека : S_TEXT/UTF8
                  Идентификатор кодека/Информация : UTF-8 Plain Text
                  Заголовок : iTunes
                  Язык : Russian
                  Default : No
                  Forced : No
                  Text #3
                  Идентификатор : 6
                  Формат : UTF-8
                  Идентификатор кодека : S_TEXT/UTF8
                  Идентификатор кодека/Информация : UTF-8 Plain Text
                  Заголовок : Forced, iTunes
                  Язык : English
                  Default : No
                  Forced : No
                  Text #4
                  Идентификатор : 7
                  Формат : UTF-8
                  Идентификатор кодека : S_TEXT/UTF8
                  Идентификатор кодека/Информация : UTF-8 Plain Text
                  Заголовок : SDH, iTunes
                  Язык : English
                  Default : No
                  Forced : No
                  Menu
                  00:00:00.000 : en:1
                  00:03:21.000 : en:2
                  00:07:18.000 : en:3
                  00:14:20.000 : en:4
                  00:20:03.000 : en:5
                  00:27:28.000 : en:6
                  00:34:17.000 : en:7
                  00:37:46.000 : en:8
                  00:42:03.000 : en:9
                  00:45:13.000 : en:10
                  00:50:31.000 : en:11
                  00:56:08.000 : en:12
                  01:00:26.000 : en:13
                  01:05:36.000 : en:14
                  01:10:00.000 : en:15
                  01:14:40.000 : en:16
                  01:18:32.000 : en:17
                  01:23:19.000 : en:18
                  01:27:41.000 : en:19
                  01:32:28.000 : en:20

                  Скриншоты

                  Скачать .torrent

                  Скачать торрент-файл бесплатно и на максимальной скорости!

                  Как скачивать? · Что такое торрент? · Рейтинг и ограничения

                  !ВНИМАНИЕ!
                  Сайт не распространяет и не хранит электронные версии произведений, а занимается лишь лишь предоставлением доступа к создаваемому пользователями каталогу ссылок на торрент-файлы, которые содержат только списки хеш-сумм, убедительная просьба с жалобами обращаться напрямую к пользователю. Файлы для обмена на трекере предоставлены пользователями сайта, и администрация не несёт ответственности за их содержание. Просьба не заливать файлы, защищенные авторскими правами, а также файлы нелегального содержания!


                  _________________
                  [Профиль] [ЛС]
                  Показать сообщения:    
                  Ответить на тему

                  Текущее время: Сегодня, в 00:34

                  Часовой пояс: GMT + 2



                  Вы не можете начинать темы
                  Вы не можете отвечать на сообщения
                  Вы не можете редактировать свои сообщения
                  Вы не можете удалять свои сообщения
                  Вы не можете голосовать в опросах
                  Вы не можете прикреплять файлы к сообщениям
                  Вы не можете скачивать файлы