BitTorrentTracker PerecTracker.org
BitTorrentTracker PerecTracker.org
    
Регистрация  ·  Вход
 
 · 
Забыли пароль?

  • Крампус / Krampus (Майкл Догерти / Michael Dougherty ) [2015, США, Новая Зеландия, Ужасы, фэнтези, комедия, WEB-DL, HD (720p)] DUB

    Ответить на тему
     
    Автор Сообщение

    Flirldrerve

    Создавать темы 27-Фев-2016 15:18

           

    [Цитировать]

    Крампус / Krampus
    «В этом году Санта Клаус не придёт»
    5.948 / 10 6.70 / 10
    -Год выпуска: 2015
    Страна: США, Новая Зеландия
    Жанр: Ужасы, фэнтези, комедия
    Продолжительность: 01:37:40
    Перевод: Дублированный (iTunes)
    Оригинальная аудиодорожка: Нет
    Cубтитры: Нет
    Режиссёр: Майкл Догерти
    Сценарий: Тодд Кэйси, Майкл Догерти, Зэк Шилдс
    Продюсер: Майкл Догерти, Алекс Гарсиа, Джон Дж. Джашни
    Оператор: Джулс О’Лафлин
    Композитор: Дуглас Пайпс
    Художник: Жуль Кук, Алистэр Кэй, Боб Бак
    Монтаж: Джон Экселрэд
    В ролях: Адам Скотт, Тони Коллетт, Дэвид Кокнер, Эллисон Толман, Кончата Феррелл, Эмджей Энтони, Стефания Оуэн, Криста Штадлер, Марк Аткин, Тревор Пау
    Бюджет: $15 000 000
    Сборы в США: $42 725 475
    Сборы в мире: + $19 020 015 = $61 745 490
    Сборы в России: $992 991
    Мировая премьера: 30 ноября 2015
    Премьера (РФ): 1 января 2016, «UPI»
    Описание: История о демоне, который во время Рождества выискивает непослушных детей, чтобы наказать их.-Качество исходника: WEB-DL 720p (HDClub)
    Качество: WEB-DL
    Тип: HD (720p)
    Контейнер: M4V
    Видео: H.264, 1280x532, 2.40:1, 4 016 Kbps, 23.976 (23976/1000) fps
    Аудио 1: Русский/Дублированный (iTunes), AAC / 2.0 / 155 Kbps / 48.0 KHz
    Аудио 2: Русский/Дублированный (iTunes), AC-3 / 5.1 / 384 Kbps / 48.0 KHz
    -

    iTunes Meta Tags

    Sort Name: Krampus
    XID: Apple:vendor_id:2015-843104
    contentID: 1056377194
    Copyright: © 2015 Universal Studios. All Rights Reserved.
    Screenwriters: Тодд Кэйси, Майкл Догерти, Зэк Шилдс
    Producers: Майкл Догерти, Алекс Гарсиа, Джон Дж. Джашни
    Director: Майкл Догерти
    Cast: Адам Скотт, Тони Коллетт, Дэвид Кокнер, Эллисон Толман, Кончата Феррелл, Эмджей Энтони, Стефания Оуэн, Криста Штадлер, Марк Аткин, Тревор Пау, Данил Щебланов, Ольга Зверева, Илья Исаев, Анастасия Лапина, Людмила Гнилова
    Studio: Universal Pictures
    Rating: 4
    Long Description: История о демоне, который во время Рождества выискивает непослушных детей, чтобы наказать их.
    Description: История о демоне, который во время Рождества выискивает непослушных детей, чтобы наказать их.
    Release Date: 2015-11-30T08:00:00Z
    Genre: Horror
    Artist: Michael Dougherty
    Name: Krampus

    MediaInfo

    General
    Complete name : /Users/imac/HandBrake/Krampus.WEB-DL.720p.m4v
    Format : MPEG-4
    Codec ID : M4V  (M4V /M4A /mp42/isom)
    File size : 3.11 GiB
    Duration : 1h 37mn
    Overall bit rate mode : Variable
    Overall bit rate : 4 562 Kbps
    Movie name : Krampus
    Performer : Michael Dougherty
    Director : Майкл Догерти
    Actor : Адам Скотт / Тони Коллетт / Дэвид Кокнер / Эллисон Толман / Кончата Феррелл / Эмджей Энтони / Стефания Оуэн / Криста Штадлер / Марк Аткин / Тревор Пау / Данил Щебланов / Ольга Зверева / Илья Исаев / Анастасия Лапина / Людмила Гнилова
    Screenplay by : Тодд Кэйси / Майкл Догерти / Зэк Шилдс
    Producer : Майкл Догерти / Алекс Гарсиа / Джон Дж. Джашни
    Production studio : Universal Pictures
    Genre : Horror
    ContentType : Short Film
    Description : История о демоне, который во время Рождества выискивает непослушных детей, чтобы наказать их.
    Recorded date : UTC 2015-11-30 08:00:00
    Encoded date : UTC 2016-02-27 10:38:15
    Tagged date : UTC 2016-02-27 10:40:09
    Copyright : © 2015 Universal Studios. All Rights Reserved.
    Cover : Yes
    Rating : None
    Title/Sort : Krampus
    LongDescription : История о демоне, который во время Рождества выискивает непослушных детей, чтобы наказать их.
    HDVideo : Yes
    AppleStoreCatalogID : 1056377194
    Vendor : Apple:vendor_id:2015-843104
    ContentRating : mpaa|PG-13|300|
    Video #1
    ID : 1
    Format : AVC
    Format/Info : Advanced Video Codec
    Format profile : Main@L3.1
    Format settings, CABAC : No
    Format settings, ReFrames : 2 frames
    Format settings, GOP : M=2, N=90
    Codec ID : avc1
    Codec ID/Info : Advanced Video Coding
    Duration : 1h 37mn
    Bit rate : 4 016 Kbps
    Width : 1 280 pixels
    Height : 532 pixels
    Display aspect ratio : 2.40:1
    Frame rate mode : Variable
    Frame rate : 23.976 (23976/1000) fps
    Minimum frame rate : 23.810 fps
    Maximum frame rate : 24.390 fps
    Color space : YUV
    Chroma subsampling : 4:2:0
    Bit depth : 8 bits
    Scan type : Progressive
    Bits/(Pixel*Frame) : 0.246
    Stream size : 2.74 GiB (88%)
    Title : Main Program
    Language : English
    Encoded date : UTC 2016-02-27 10:38:15
    Tagged date : UTC 2016-02-27 10:38:57
    Color range : Limited
    Color primaries : BT.709
    Transfer characteristics : BT.709
    Matrix coefficients : BT.709
    Menus : 4,5
    Video #2
    ID : 5
    Format : JPEG
    Codec ID : jpeg
    Duration : 1h 37mn
    Bit rate mode : Variable
    Bit rate : 562 bps
    Width : 640 pixels
    Height : 266 pixels
    Display aspect ratio : 2.40:1
    Frame rate mode : Variable
    Frame rate : 0.003 fps
    Minimum frame rate : 0.002 fps
    Maximum frame rate : 0.005 fps
    Color space : YUV
    Chroma subsampling : 4:2:0
    Bit depth : 8 bits
    Compression mode : Lossy
    Bits/(Pixel*Frame) : 1.100
    Stream size : 457 KiB (0%)
    Title : Chapter Images
    Language : English
    Default : No
    Encoded date : UTC 2016-02-27 10:39:02
    Tagged date : UTC 2016-02-27 10:39:02
    Menu For : 1
    Audio #1
    ID : 2
    Format : AAC
    Format/Info : Advanced Audio Codec
    Format profile : LC
    Codec ID : 40
    Duration : 1h 37mn
    Bit rate mode : Variable
    Bit rate : 155 Kbps
    Maximum bit rate : 253 Kbps
    Channel(s) : 2 channels
    Channel positions : Front: L R
    Sampling rate : 48.0 KHz
    Frame rate : 46.875 fps (1024 spf)
    Compression mode : Lossy
    Stream size : 108 MiB (3%)
    Title : Russian Stereo
    Language : Russian
    Default : Yes
    Alternate group : 1
    Encoded date : UTC 2016-02-27 10:38:15
    Tagged date : UTC 2016-02-27 10:38:45
    Fallback From : 3
    Audio #2
    ID : 3
    Format : AC-3
    Format/Info : Audio Coding 3
    Mode extension : CM (complete main)
    Format settings, Endianness : Big
    Codec ID : ac-3
    Duration : 1h 37mn
    Bit rate mode : Constant
    Bit rate : 384 Kbps
    Channel(s) : 6 channels
    Channel positions : Front: L C R, Side: L R, LFE
    Sampling rate : 48.0 KHz
    Frame rate : 31.250 fps (1536 spf)
    Bit depth : 16 bits
    Compression mode : Lossy
    Stream size : 268 MiB (8%)
    Title : Russian DD 5.1
    Language : Russian
    Default : Inherited From: 2
    Alternate group : 1
    Encoded date : UTC 2016-02-27 10:38:15
    Tagged date : UTC 2016-02-27 10:38:45
    Fallback To : 2
    Menu #1
    00:00:00.000 : глава 1
    00:03:21.000 : глава 2
    00:07:18.000 : глава 3
    00:14:20.000 : глава 4
    00:20:03.000 : глава 5
    00:27:28.000 : глава 6
    00:34:17.000 : глава 7
    00:37:46.000 : глава 8
    00:42:03.000 : глава 9
    00:45:13.000 : глава 10
    00:50:31.000 : глава 11
    00:56:08.000 : глава 12
    01:00:26.000 : глава 13
    01:05:36.000 : глава 14
    01:10:00.000 : глава 15
    01:14:40.000 : глава 16
    01:18:32.000 : глава 17
    01:23:19.000 : глава 18
    01:27:41.000 : глава 19
    01:32:28.000 : глава 20
    Menu #2
    ID : 4
    Codec ID : text
    Duration : 1h 37mn
    Language : English
    Encoded date : UTC 2016-02-27 10:38:58
    Tagged date : UTC 2016-02-27 10:38:58
    Menu For : 1
    00:00:00.000 : глава 1
    00:03:21.000 : глава 2
    00:07:18.000 : глава 3
    00:14:20.000 : глава 4
    00:20:03.000 : глава 5
    00:27:28.000 : глава 6
    00:34:17.000 : глава 7
    00:37:46.000 : глава 8
    00:42:03.000 : глава 9
    00:45:13.000 : глава 10
    00:50:31.000 : глава 11
    00:56:08.000 : глава 12
    01:00:26.000 : глава 13
    01:05:36.000 : глава 14
    01:10:00.000 : глава 15
    01:14:40.000 : глава 16
    01:18:32.000 : глава 17
    01:23:19.000 : глава 18
    01:27:41.000 : глава 19
    01:32:28.000 : глава 20
    Bit rate mode : VBR

    Скриншоты

    -

    Релиз подготовлен для просмотра на Apple TV, iPad, iPhone, iPod Touch.
    Для просмотра данного релиза на компьютере с ОС Windows рекомендуется использовать VLC media player
    Скачать .torrent

    Скачать торрент-файл бесплатно и на максимальной скорости!

    Как скачивать? · Что такое торрент? · Рейтинг и ограничения

    !ВНИМАНИЕ!
    Сайт не распространяет и не хранит электронные версии произведений, а занимается лишь лишь предоставлением доступа к создаваемому пользователями каталогу ссылок на торрент-файлы, которые содержат только списки хеш-сумм, убедительная просьба с жалобами обращаться напрямую к пользователю. Файлы для обмена на трекере предоставлены пользователями сайта, и администрация не несёт ответственности за их содержание. Просьба не заливать файлы, защищенные авторскими правами, а также файлы нелегального содержания!


    _________________
    [Профиль] [ЛС]
    Показать сообщения:    
    Ответить на тему

    Текущее время: Сегодня, в 02:44

    Часовой пояс: GMT + 2



    Вы не можете начинать темы
    Вы не можете отвечать на сообщения
    Вы не можете редактировать свои сообщения
    Вы не можете удалять свои сообщения
    Вы не можете голосовать в опросах
    Вы не можете прикреплять файлы к сообщениям
    Вы не можете скачивать файлы