BitTorrentTracker PerecTracker.org
BitTorrentTracker PerecTracker.org
    
Регистрация  ·  Вход
 
 · 
Забыли пароль?

  • Людвиг Баварский / Ludwig II (Мари Ноэль / Marie Noelle, Петер Зер / Peter Sehr) [2012, Германия, драма, биография, история, WEB-DLRip] MVO

    Ответить на тему
     
    Автор Сообщение

    rechyn

    Создавать темы 27-Фев-2016 15:18

           

    [Цитировать]

    Людвиг Баварский / Ludwig II
    Год выпуска: 2012
    Страна: Германия
    Жанр: драма, биография, история
    Продолжительность: 02:16:52
    Перевод: Профессиональный (многоголосый закадровый)
    Субтитры: нет
    Режиссер: Мари Ноэль / Marie Noelle, Петер Зер / Peter Sehr
    В ролях: Сабин Тамбреа, Себастьян Шиппер, Паула Бир, Йозеф Брандмайер, Гедеон Буркхард, Йоханнес Каселл, Франц Динда, Самюэль Финци, Ханна Херцшпрунг, Хайде Яблонка
    Описание:Баварский король Людвиг II стал легендой еще при жизни. Тонкий любитель искусства, знаток музыки и архитектуры, возвышенный юноша… Да, трудно представить себе менее подходящую кандидатуру на баварский престол — особенно в век расцвета воинствующих империй. Красавец Людвиг, более увлеченный оперой, чем пополнением казны, и сам сомневался в том, что оправдает надежды отца и станет достойным преемником. Между тем, почувствовав вкус политической игры, Людвиг становится ключевой фигурой баварской истории...
    Качество: WEB-DLRip (720p WEB-DL HDCLUB)
    Формат: AVI
    Видео кодек: XviD
    Аудио кодек: AC3
    Видео: 720x304 (2.37:1), 25 fps, XviD build 67 ~1844 kbps avg, 0.34 bit/pixel
    Аудио: 48 kHz, 3/2 (L,C,R,l,r) + LFE ch, ~384 kbps
    Скачать сэмпл

    Скриншоты

    mediainfo

    General
    Complete name : C:\Users\Алексей\Desktop\рипинг\Ljudvik_bavarskij_2012_HDTVRip_by_Kayl.avi.avi
    Format : AVI
    Format/Info : Audio Video Interleave
    Format profile : OpenDML
    File size : 2.14 GiB
    Duration : 2h 16mn
    Overall bit rate : 2 235 Kbps
    Writing application : VirtualDubMod 1.5.10.2 (build 2540/release)
    Writing library : VirtualDubMod build 2540/release
    Video
    ID : 0
    Format : MPEG-4 Visual
    Format profile : Advanced Simple@L5
    Format settings, BVOP : 2
    Format settings, QPel : No
    Format settings, GMC : No warppoints
    Format settings, Matrix : Default (MPEG)
    Codec ID : XVID
    Codec ID/Hint : XviD
    Duration : 2h 16mn
    Bit rate : 1 839 Kbps
    Width : 720 pixels
    Height : 304 pixels
    Display aspect ratio : 2.35:1
    Frame rate : 25.000 fps
    Color space : YUV
    Chroma subsampling : 4:2:0
    Bit depth : 8 bits
    Scan type : Progressive
    Compression mode : Lossy
    Bits/(Pixel*Frame) : 0.336
    Stream size : 1.76 GiB (82%)
    Writing library : XviD 67
    Audio
    ID : 1
    Format : AC-3
    Format/Info : Audio Coding 3
    Mode extension : CM (complete main)
    Format settings, Endianness : Big
    Codec ID : 2000
    Duration : 2h 16mn
    Bit rate mode : Constant
    Bit rate : 384 Kbps
    Channel(s) : 6 channels
    Channel positions : Front: L C R, Side: L R, LFE
    Sampling rate : 48.0 KHz
    Frame rate : 31.250 fps (1536 spf)
    Compression mode : Lossy
    Stream size : 376 MiB (17%)
    Alignment : Split accross interleaves
    Interleave, duration : 40 ms (1.00 video frame)
    Interleave, preload duratio : 500 ms
    Скачать .torrent

    Скачать торрент-файл бесплатно и на максимальной скорости!

    Как скачивать? · Что такое торрент? · Рейтинг и ограничения

    !ВНИМАНИЕ!
    Сайт не распространяет и не хранит электронные версии произведений, а занимается лишь лишь предоставлением доступа к создаваемому пользователями каталогу ссылок на торрент-файлы, которые содержат только списки хеш-сумм, убедительная просьба с жалобами обращаться напрямую к пользователю. Файлы для обмена на трекере предоставлены пользователями сайта, и администрация не несёт ответственности за их содержание. Просьба не заливать файлы, защищенные авторскими правами, а также файлы нелегального содержания!


    _________________
    [Профиль] [ЛС]
    Показать сообщения:    
    Ответить на тему

    Текущее время: Сегодня, в 10:19

    Часовой пояс: GMT + 2



    Вы не можете начинать темы
    Вы не можете отвечать на сообщения
    Вы не можете редактировать свои сообщения
    Вы не можете удалять свои сообщения
    Вы не можете голосовать в опросах
    Вы не можете прикреплять файлы к сообщениям
    Вы не можете скачивать файлы