BitTorrentTracker PerecTracker.org
BitTorrentTracker PerecTracker.org
    
Регистрация  ·  Вход
 
 · 
Забыли пароль?

  • Любовный треугольник / Давайте втроём / À trois on y va / All About Them (Жером Боннел / Jérôme Bonnell) [2015, Франция, Бельгия, комедия, WEB-DLRip] Sub Rus, Eng + Original Fre

    Ответить на тему
     
    Автор Сообщение

    rechyn

    Создавать темы 27-Фев-2016 15:18

           

    [Цитировать]

    Любовный треугольник / Давайте втроём / À trois on y va / All About Them

    Страна: Франция, Бельгия
    Жанр: комедия
    Год выпуска: 2015
    Продолжительность: 01:26:26
    Перевод: Субтитры
    Cубтитры: русские, английские
    Оригинальная аудиодорожка: французский

    Режиссер: Жером Боннел / Jérôme Bonnell
    В ролях: Анаис Демустье, Феликс Моати, Софи Вербек, Патрик д’Асумсао, Оливье Брош, Лорэ Кэлами, Аннилор Куэ, Клер Маньен, Каролин Баер, Пьер Бизе
    Описание: Молодые влюблённые Шарлотт и Миша только что купили дом в окрестностях Лилля, где собираются предаваться любви. Но с некоторого момента Шарлотта начала изменять Миша с Мелоди… Ничего не подозревающий Миша всё же чувствует себя до некоторой степени покинутым и в свою очередь изменяет Шарлотт, и тоже с Мелоди! Для Мелоди это настоящий кошмар. Ей дарят свою любовь сразу два человека, она со своей стороны тоже неравнодушна к обоим и должна хранить сразу две тайны…
    Качество видео: WEB-DLRip
    Формат видео: AVI
    Видео: 704x384 (1.83:1), 24 fps, XviD build 73 ~2017 kbps avg, 0.31 bit/pixel
    Аудио: 48 kHz, AC3 Dolby Digital, 3/2 (L,C,R,l,r) + LFE ch, ~384 kbps

    MediaInfo

    Общее
    Полное имя : H:\A.trois.on.y.va.2015.web-dlrip_[1.46]_[teko]\A.trois.on.y.va.2015.web-dlrip_[1.46].avi
    Формат : AVI
    Формат/Информация : Audio Video Interleave
    Размер файла : 1,46 Гбайт
    Продолжительность : 1 ч. 26 м.
    Общий поток : 2411 Кбит/сек
    Программа кодирования : VirtualDubMod 1.5.10.3 | www.virtualdub-fr.org || (build 2550/release)
    Библиотека кодирования : VirtualDubMod build 2550/release
    Видео
    Идентификатор : 0
    Формат : MPEG-4 Visual
    Профиль формата : Advanced Simple@L5
    Параметр BVOP формата : 2
    Параметр QPel формата : Нет
    Параметр GMC формата : Без точки перехода
    Параметр матрицы формата : Выборочная
    Идентификатор кодека : XVID
    Идентификатор кодека/Подсказка : XviD
    Продолжительность : 1 ч. 26 м.
    Битрейт : 2018 Кбит/сек
    Ширина : 704 пикселя
    Высота : 384 пикселя
    Соотношение сторон : 1,85:1
    Частота кадров : 24,000 кадра/сек
    Цветовое пространство : YUV
    Субдискретизация насыщенности : 4:2:0
    Битовая глубина : 8 бит
    Тип развёртки : Прогрессивная
    Метод сжатия : С потерями
    Бит/(Пиксели*Кадры) : 0.311
    Размер потока : 1,22 Гбайт (84%)
    Библиотека кодирования : XviD 73
    Аудио
    Идентификатор : 1
    Формат : AC-3
    Формат/Информация : Audio Coding 3
    Расширение режима : CM (complete main)
    Параметр Endianness формата : Big
    Идентификатор кодека : 2000
    Продолжительность : 1 ч. 26 м.
    Вид битрейта : Постоянный
    Битрейт : 384 Кбит/сек
    Каналы : 6 каналов
    Расположение каналов : Front: L C R, Side: L R, LFE
    Частота : 48,0 КГц
    Битовая глубина : 16 бит
    Метод сжатия : С потерями
    Размер потока : 237 Мбайт (16%)
    Выравнивание : Разделение по промежуткам
    Продолжительность промежутка : 42 мс. (1,00 видеокадр)
    Время предзагрузки промежутка : 500 мс.

    Фрагмент субтитров

    466
    00:32:44,380 --> 00:32:45,672
    Перестань.
    467
    00:32:46,839 --> 00:32:48,547
    Я жалею,
    что надела его.
    468
    00:32:48,922 --> 00:32:50,297
    Лицемерка!
    469
    00:32:51,297 --> 00:32:53,005
    Ты хотела свести меня с ума?
    470
    00:32:55,089 --> 00:32:58,422
    Ты 3 дня мне не звонила.
    Это не свело тебя с ума?
    471
    00:33:00,297 --> 00:33:01,505
    Погоди...
    472
    00:33:03,214 --> 00:33:05,797
    Разве ты не за этим пришла?
    473
    00:33:19,839 --> 00:33:21,214
    Так вот в чем дело?
    474
    00:33:22,005 --> 00:33:24,505
    Тебе нравится
    добиваться меня?
    475
    00:34:24,797 --> 00:34:25,964
    Ты быстро управился.
    476
    00:34:27,964 --> 00:34:31,214
    Я ничего не нашел,
    кроме стульев и стола за 25 евро.
    477
    00:34:32,130 --> 00:34:33,464
    Там было полно народу.
    478
    00:34:33,630 --> 00:34:34,630
    Такая толкотня!
    479
    00:34:36,839 --> 00:34:38,422
    Я разлюбил
    блошиные рынки.
    480
    00:34:38,589 --> 00:34:39,630
    Черт!
    481
    00:34:39,922 --> 00:34:42,380
    - У тебя жар. Ты заболела?
    - Нет.
    482
    00:34:42,547 --> 00:34:43,672
    Дай лоб.
    483
    00:34:45,172 --> 00:34:46,005
    Точно?

    Скриншоты

    Релиз группы:

    -
    -
    Скачать .torrent

    Скачать торрент-файл бесплатно и на максимальной скорости!

    Как скачивать? · Что такое торрент? · Рейтинг и ограничения

    !ВНИМАНИЕ!
    Сайт не распространяет и не хранит электронные версии произведений, а занимается лишь лишь предоставлением доступа к создаваемому пользователями каталогу ссылок на торрент-файлы, которые содержат только списки хеш-сумм, убедительная просьба с жалобами обращаться напрямую к пользователю. Файлы для обмена на трекере предоставлены пользователями сайта, и администрация не несёт ответственности за их содержание. Просьба не заливать файлы, защищенные авторскими правами, а также файлы нелегального содержания!


    _________________
    [Профиль] [ЛС]
    Показать сообщения:    
    Ответить на тему

    Текущее время: Сегодня, в 23:11

    Часовой пояс: GMT + 2



    Вы не можете начинать темы
    Вы не можете отвечать на сообщения
    Вы не можете редактировать свои сообщения
    Вы не можете удалять свои сообщения
    Вы не можете голосовать в опросах
    Вы не можете прикреплять файлы к сообщениям
    Вы не можете скачивать файлы