Register  ·  Log in
Forgot password?

  • Крампус / Krampus (Майкл Догерти / Michael Dougherty) [2015, США, Новая Зеландия, Ужасы, фэнтези, комедия, WEB-DLRip] Dub (iTunes)

    Reply to topic
    Author Message


    Post 27-Feb-2016 03:41



    Крампус / Krampus

    «В этом году Санта Клаус не придёт»
    -Страна: США, Новая Зеландия
    Жанр: Ужасы, фэнтези, комедия
    Год выпуска: 2015
    Продолжительность: 01:37:40-Перевод: Профессиональный (дублированный) [iTunes]
    Cубтитры: нет-Режиссер: Майкл Догерти / Michael Dougherty-В ролях: Адам Скотт, Тони Коллетт, Дэвид Кокнер, Эллисон Толман, Кончата Феррелл, Эмджей Энтони, Стефания Оуэн, Криста Штадлер, Марк Аткин, Тревор Пау-Описание: История о демоне, который во время Рождества выискивает непослушных детей, чтобы наказать их.- -Качество видео: WEB-DLRip
    Формат видео: AVI-Видео: 720x304 (2.35:1), 23.976 fps, XviD build 50, 1610 Kbps, 0.30 bit/pixel
    Аудио: 48.0 kHz, AC3 Dolby Digital, 3/2 (L,C,R,l,r) + LFE ch, 384 Kbps-


    Complete name : Downloads\KPampuC.2015.D.WEB-DLRip.14OOMb.avi
    Format : AVI
    Format/Info : Audio Video Interleave
    File size : 1.37 GiB
    Duration : 1h 37mn
    Overall bit rate : 2 003 Kbps
    Movie name : KPampuC.2015.D.WEB-DLRip.14OOMb
    Writing application : VirtualDubMod (build 2540/release)
    Original source form/Name : Movie
    Video #0
    ID : 0
    Format : MPEG-4 Visual
    Format profile : Advanced Simple@L5
    Format settings, BVOP : 2
    Format settings, QPel : No
    Format settings, GMC : No warppoints
    Format settings, Matrix : Default (MPEG)
    Codec ID : XVID
    Codec ID/Hint : XviD
    Duration : 1h 37mn
    Bit rate : 1 610 Kbps
    Width : 720 pixels
    Height : 304 pixels
    Display aspect ratio : 2.35:1
    Frame rate : 23.976 fps
    Color space : YUV
    Chroma subsampling : 4:2:0
    Bit depth : 8 bits
    Scan type : Progressive
    Compression mode : Lossy
    Bits/(Pixel*Frame) : 0.307
    Stream size : 1.10 GiB (80%)
    Writing library : XviD 1.2.1 (UTC 2008-12-04)
    Audio #1
    ID : 1
    Format : AC-3
    Format/Info : Audio Coding 3
    Mode extension : CM (complete main)
    Format settings, Endianness : Big
    Codec ID : 2000
    Duration : 1h 37mn
    Bit rate mode : Constant
    Bit rate : 384 Kbps
    Channel(s) : 6 channels
    Channel positions : Front: L C R, Side: L R, LFE
    Sampling rate : 48.0 KHz
    Bit depth : 16 bits
    Compression mode : Lossy
    Stream size : 268 MiB (19%)
    Alignment : Split accross interleaves
    Interleave, duration : 42 ms (1.00 video frame)
    Interleave, preload duration : 500 ms

    Скриншот c названием фильма


    Download .torrent

    Download free and at maximum speed!

    How to Download? · What is a torrent? · Ratings and Limitations

    The site does not extend and does not store electronic(digital) versions of products, and only gives access to a reference catalogue created by users on torrent-files which contain only lists of the hash-sums, the earnest entreaty, with complaints(abuse) to access directly to the user. Files for an exchange on tracker are given by users of a site, and the administration does not bear the responsibility for their maintenance. The request to not fill in the files protected by copyrights, and also files of the illegal maintenance!

    [Profile] [PM]
    Display posts from previous:    
    Reply to topic

    The time now is: Today 09:54

    All times are GMT + 3 Hours

    You cannot post new topics in this forum
    You cannot reply to topics in this forum
    You cannot edit your posts in this forum
    You cannot delete your posts in this forum
    You cannot vote in polls in this forum
    You cannot attach files in this forum
    You cannot download files in this forum