BitTorrentTracker PerecTracker.org
BitTorrentTracker PerecTracker.org
    
Регистрация  ·  Вход
 
 · 
Забыли пароль?

  • Белая стрела. Возмездие / Серии: 1-12 из 12 (Александр Строев (III), Алексей Шикин) [2015, Россия, Боевик, детектив, WEBRip]

    Ответить на тему
     
    Автор Сообщение

    rechyn

    Создавать темы 26-Фев-2016 22:05

           

    [Цитировать]

    Белая стрела. ВозмездиеПроизводитель : Россия, Intra Communications по заказу 5-го канала
    Жанр: Боевик, детектив
    Год выпуска: 2015
    Продолжительность: 45 мин.
    Cубтитры: нет
    Режиссер: Александр Строев (III), Алексей Шикин
    В ролях: Сергей Маховиков, Александр Саюталин, Андрей Аверьянов, Владимир Маслаков, Егор Кутенков, Мария Жиганова, Евгений Ганелин, Ирина Обрезкова, Ирина Основина, Евгений Такс, Никита Яковлев, Николай Солодилов, Виталий Салий, Инна Горбикова, Анастасия Чистякова (II), Валентина Трухачева, Елена Мартыненко, Дмитрий Гирев, Егор Бакулин, Александр Мосолов, Станислав Мухамадеев, Михаил Бракоренко, Андрей Некрасов (III), Вячеслав Гумеров
    Описание: Главные герои сериала на своей оперативной работе постоянно сталкиваются с несправедливостью. С несправедливостью закона, которому они служат. Уходят от наказания преступники, - убийцы, насильники, грабители, их неотмщённые жертвы вопиют в могилах, выжившие потерпевшие теряют веру в справедливость. Для чего тогда нужна настоящая мужская работа, работа оперативника? Не спать ночами, выслеживать и ловить, рискуя жизнью, негодяев для того, чтобы жиреющие судьи выпускали их на свободу в зале суда? Фемида должна быть беспристрастной, но не слепой! Наши герои по-новому смотрят на своё предназначение. Пусть дверцы клетки правосудия не могут удержать разлетающихся стервятников, - наши герои умеют стрелять и влёт...
    Все раздачи сериала
    Сэмпл
    Качество: WEBRip
    Формат: AVI
    Видео кодек: XviD
    Аудио кодек: AC3
    Видео: 720x400 (1.80:1), 25 fps, XviD build 50 ~1548 kbps avg, 0.22 bit/pixel
    Аудио: 48 kHz, AC3 Dolby Digital, 2/0 (L,R) ch, ~192.00 kbps avg

    MI

    General
    Complete name : Y:\раздачи\Belaya strela. Vozmmezdie.2015.WEB-DLRip.RG.Russkie.serialy.&.Files-x.Belaya strela. Vozmmezdie.2015.WEB-DLRip.RG.Russkie.serialy.&.Files-x.avi
    Format : AVI
    Format/Info : Audio Video Interleave
    File size : 631 MiB
    Duration : 49mn 25s
    Overall bit rate : 1 785 Kbps
    Writing application : VirtualDubMod 1.5.10.3 (build 2550/release)
    Writing library : VirtualDubMod build 2550/release
    Video
    ID : 0
    Format : MPEG-4 Visual
    Format profile : Advanced Simple@L5
    Format settings, BVOP : 1
    Format settings, QPel : No
    Format settings, GMC : No warppoints
    Format settings, Matrix : Custom
    Codec ID : XVID
    Codec ID/Hint : XviD
    Duration : 49mn 25s
    Bit rate : 1 583 Kbps
    Width : 720 pixels
    Height : 400 pixels
    Display aspect ratio : 16:9
    Frame rate : 25.000 fps
    Color space : YUV
    Chroma subsampling : 4:2:0
    Bit depth : 8 bits
    Scan type : Progressive
    Compression mode : Lossy
    Bits/(Pixel*Frame) : 0.220
    Stream size : 560 MiB (89%)
    Writing library : XviD 73
    Audio
    ID : 1
    Format : AC-3
    Format/Info : Audio Coding 3
    Mode extension : CM (complete main)
    Format settings, Endianness : Big
    Codec ID : 2000
    Duration : 49mn 25s
    Bit rate mode : Constant
    Bit rate : 192 Kbps
    Channel(s) : 2 channels
    Channel positions : Front: L R
    Sampling rate : 44.1 KHz
    Compression mode : Lossy
    Stream size : 67.9 MiB (11%)
    Alignment : Split accross interleaves
    Interleave, duration : 40 ms (1.00 video frame)
    Interleave, preload duratio : 500 ms

    Скриншоты


    Скачать .torrent

    Скачать торрент-файл бесплатно и на максимальной скорости!

    Как скачивать? · Что такое торрент? · Рейтинг и ограничения

    !ВНИМАНИЕ!
    Сайт не распространяет и не хранит электронные версии произведений, а занимается лишь лишь предоставлением доступа к создаваемому пользователями каталогу ссылок на торрент-файлы, которые содержат только списки хеш-сумм, убедительная просьба с жалобами обращаться напрямую к пользователю. Файлы для обмена на трекере предоставлены пользователями сайта, и администрация не несёт ответственности за их содержание. Просьба не заливать файлы, защищенные авторскими правами, а также файлы нелегального содержания!


    _________________
    [Профиль] [ЛС]
    Показать сообщения:    
    Ответить на тему

    Текущее время: Сегодня, в 18:06

    Часовой пояс: GMT + 2



    Вы не можете начинать темы
    Вы не можете отвечать на сообщения
    Вы не можете редактировать свои сообщения
    Вы не можете удалять свои сообщения
    Вы не можете голосовать в опросах
    Вы не можете прикреплять файлы к сообщениям
    Вы не можете скачивать файлы