BitTorrentTracker PerecTracker.org
BitTorrentTracker PerecTracker.org
    
Регистрация  ·  Вход
 
 · 
Забыли пароль?

  • Без срока давности / Сезон: 1 / Серии: 1-25 из 25 (Михаил Кабанов (II), Станислав Булов) [2012, Криминал, детектив, WEBRip]

    Ответить на тему
     
    Автор Сообщение

    rechyn

    Создавать темы 26-Фев-2016 22:00

           

    [Цитировать]

    Без срока давности
    Год выпуска: 2012
    Производство: "Star Media"
    Жанр: Криминал, детектив
    Продолжительность: ~ 00:47:20
    Субтитры: Нет
    Режиссёр: Михаил Кабанов (II), Станислав Булов
    В ролях: Екатерина Юдина, Владимир Ерёмин, Сергей Марин, Валерий Шейман, Роман Жирнов, Дмитрий Ендальцев, Тимур Боканча, Елена Полянская, Евгения Бордзиловская, Алина Кизиярова, Наталья Коновалова, Анатолий Завьялов, Дмитрий Готсдинер, Александр Пурис, Александр Калугин (II), Анна Бачалова, Евгений Сангаджиев, Елена Горина, Владимир Демидов, Дмитрий Лещук, Наталья Левина, Джульетта Геринг, Евгений Плиткин, Евгений Данчевский, Леонид Кутсар, Дмитрий Тархов, Дмитрий Гудочкин, Алексей Жиров, Елизавета Горелова, Анна Здор, Дмитрий Фрид, Михаил Лукашов, Дмитрий Мазуров, Агния Кузнецова, Евгения Каверау, Василий Савинов, Елена Анисимова, Николай Сахаров, Елена Ивасишина, Михаил Рахлин, Ксения Ильясова, Елена Аросьева, Артурс Пуполс-Кочаневский, Саша Булатов, Валерия Приходченко, Александр Бобров (III), Илья Ждаников, Елена Епихина, Ольга Кузьмина, Полина Ганшина, Ирина Чипиженко, Александр Федоров (VIII), Игорь Стам, Дарья Лузина, Александр Солдаткин, Кирилл Кяро, Владислав Павлов, Александра Афанасьева-Шевчук, Ирина Сидорова, Любовь Фирсова, Руслан Ягудин, Сергей Чугин, Александр Зельский, Елена Медведева, Виктор Мютников, Юлия Галина, Вероника Вернадская, Влад Канопка, Ольга Котельникова, Николай Демидов
    Описание: Группа оперативных работников Московского уголовного розыска во главе со следователем Аллой Шатровой специализируется на расследовании «мертвых дел» - преступлений, по разным причинам не раскрытых полицией на протяжении долгих лет. Каждый раз, когда появляются новые факты, новые свидетели, Алла Шатрова и ее коллеги используют все возможности, чтобы воспроизвести и проанализировать события совершенных много лет назад преступлений. Следственная группа отрабатывает старые и новые версии, по крупицам восстанавливает ход событий, выходит на подозреваемых и вынуждает их под грузом улик совершить признание в содеянном.
    Автор рипа: dm1805
    Все раздачи сериала:
    Семпл:
    Качество: WEBRip
    Формат: AVI
    Видео кодек: XviD
    Аудио кодек: AC3
    Видео: 720x400 (1.80:1), 25 fps, XviD build 65 ~1586 kbps avg, 0.22 bit/pixel
    Аудио: 44.100 kHz, AC3 Dolby Digital, 2/0 (L,R) ch, ~192.00 kbps avg

    MediaInfo

    Общее
    Полное имя : D:\Сериалы\Без срока давности\Bez.sroka.davnosti.01.2012.
    Формат : AVI
    Формат/Информация : Audio Video Interleave
    Размер файла : 601 Мбайт
    Продолжительность : 46 м.
    Общий поток : 1788 Кбит/сек
    Программа кодирования : VirtualDubMod 1.5.10.2 (build 2540/release)
    Библиотека кодирования : VirtualDubMod build 2540/release
    Видео
    Идентификатор : 0
    Формат : MPEG-4 Visual
    Профиль формата : Advanced Simple@L5
    Параметр BVOP формата : 2
    Параметр QPel формата : Нет
    Параметр GMC формата : Без точки перехода
    Параметр матрицы формата : Default (MPEG)
    Идентификатор кодека : XVID
    Идентификатор кодека/Подсказка : XviD
    Продолжительность : 46 м.
    Битрейт : 1586 Кбит/сек
    Ширина : 720 пикселей
    Высота : 400 пикселей
    Соотношение сторон : 16:9
    Частота кадров : 25,000 кадров/сек
    Цветовое пространство : YUV
    Субдискретизация насыщенности : 4:2:0
    Битовая глубина : 8 бит
    Тип развёртки : Прогрессивная
    Метод сжатия : С потерями
    Бит/(Пиксели*Кадры) : 0.220
    Размер потока : 533 Мбайт (89%)
    Библиотека кодирования : XviD 65
    Аудио
    Идентификатор : 1
    Формат : AC-3
    Формат/Информация : Audio Coding 3
    Расширение режима : CM (complete main)
    Параметр Endianness формата : Big
    Идентификатор кодека : 2000
    Продолжительность : 46 м.
    Вид битрейта : Постоянный
    Битрейт : 192 Кбит/сек
    Каналы : 2 канала
    Расположение каналов : Front: L R
    Частота : 44,1 КГц
    Метод сжатия : С потерями
    Размер потока : 64,5 Мбайт (11%)
    Выравнивание : Разделение по промежуткам
    Продолжительность промежутка : 40 мс. (1,00 видеокадр)
    Время предзагрузки промежутка : 500 мс.

    Скриншоты

    Скачать .torrent

    Скачать торрент-файл бесплатно и на максимальной скорости!

    Как скачивать? · Что такое торрент? · Рейтинг и ограничения

    !ВНИМАНИЕ!
    Сайт не распространяет и не хранит электронные версии произведений, а занимается лишь лишь предоставлением доступа к создаваемому пользователями каталогу ссылок на торрент-файлы, которые содержат только списки хеш-сумм, убедительная просьба с жалобами обращаться напрямую к пользователю. Файлы для обмена на трекере предоставлены пользователями сайта, и администрация не несёт ответственности за их содержание. Просьба не заливать файлы, защищенные авторскими правами, а также файлы нелегального содержания!


    _________________
    [Профиль] [ЛС]
    Показать сообщения:    
    Ответить на тему

    Текущее время: Сегодня, в 17:59

    Часовой пояс: GMT + 2



    Вы не можете начинать темы
    Вы не можете отвечать на сообщения
    Вы не можете редактировать свои сообщения
    Вы не можете удалять свои сообщения
    Вы не можете голосовать в опросах
    Вы не можете прикреплять файлы к сообщениям
    Вы не можете скачивать файлы