BitTorrentTracker PerecTracker.org
BitTorrentTracker PerecTracker.org
    
Регистрация  ·  Вход
 
 · 
Забыли пароль?

  • Однажды в Ростове / Серии: 1-24 из 24 (Константин Худяков) [2012, Криминал, сага, DVDRip]

    Ответить на тему
     
    Автор Сообщение

    rechyn

    Создавать темы 26-Фев-2016 21:57

           

    [Цитировать]

    Однажды в Ростове
    Год выпуска: 2012
    Производство: "ООО Продюсерский центр Сергея Жигунова"
    Жанр: Криминал, сага
    Продолжительность:~ 00:45:40
    Субтитры: Нет
    Режиссёр: Константин Худяков
    В ролях: Владимир Вдовиченков, Кирилл Плетнёв, Екатерина Олькина, Сергей Жигунов, Алёна Бабенко, Богдан Ступка, Виктор Раков, Екатерина Вуличенко, Владимир Юматов, Алексей Бардуков, Константин Лавроненко, Юрий Беляев, Михаил Евланов, Виталий Хаев, Екатерина Климова, Евгений Князев, Екатерина Никитина, Дмитрий Муляр, Александр Сирин, Анна Каменкова, Андрей Ильин, Екатерина Вилкова, Сергей Шеховцов, Сергей Тарамаев, Алексей Воробьёв, Анна Миклош, Сергей Петров (II), Алла Мещерякова, Наталья Заякина, Ксения Лаврова-Глинка, Денис Васильев, Екатерина Юдина, Владимир Сычёв, Владимир Тимофеев, Иван Суханов, Сергей Сосновский, Пётр Ступин, Юлия Рутберг, Сергей Лосев, Карэн Бадалов, Валерий Ненашев, Геннадий Храпунков, Николай Токарев
    Описание: В основе сюжета - реальная история о банде, которая орудовала в Ростовской области в 60-е годы прошлого века и событиях в Новочеркасске в 1962 году.
    История о легендарной банде «фантомасов» Толстопятовых, державших в 60-е в страхе весь город. Основатель и лидер банды - Вячеслав Толстопятов с детских лет увлекался конструированием, черчением и рисованием. Отчасти именно эти детские увлечения "помогали" всей банде в последующие годы успешно "функционировать" на территории города Ростова в 1968 — 1973 гг: грабить государственные учреждения, изготовлять и сбывать фальшивые деньги. Деяния банды вошли в список самых громких преступлений XX века.
    Автор рипа: bog3417
    Все раздачи сериала:
    Семпл:
    Качество: DVDRip
    Формат: AVI
    Видео кодек: XviD
    Аудио кодек: AC3
    Видео: 720x400 (1.80:1), 25 fps, XviD build 73 ~1999 kbps avg, 0.28 bit/pixel
    Аудио: 48 kHz, AC3 Dolby Digital, 2/0 (L,R) ch, ~192.00 kbps avg

    MediaInfo

    Общее
    Полное имя : D:\Сериалы\Odnajdy.v.Rostove.2012.O.DVDRip.avi
    Формат : AVI
    Формат/Информация : Audio Video Interleave
    Размер файла : 704 Мбайт
    Продолжительность : 44 м.
    Общий поток : 2201 Кбит/сек
    Программа кодирования : VirtualDubMod 1.5.10.3 | www.virtualdub-fr.org || (build 2550/release)
    Библиотека кодирования : VirtualDubMod build 2550/release
    Видео
    Идентификатор : 0
    Формат : MPEG-4 Visual
    Профиль формата : Advanced Simple@L5
    Параметр BVOP формата : 1
    Параметр QPel формата : Нет
    Параметр GMC формата : Без точки перехода
    Параметр матрицы формата : Выборочная
    Идентификатор кодека : XVID
    Идентификатор кодека/Подсказка : XviD
    Продолжительность : 44 м.
    Битрейт : 2000 Кбит/сек
    Ширина : 720 пикселей
    Высота : 400 пикселей
    Соотношение сторон : 16:9
    Частота кадров : 25,000 кадров/сек
    Цветовое пространство : YUV
    Субдискретизация насыщенности : 4:2:0
    Битовая глубина : 8 бит
    Тип развёртки : Прогрессивная
    Метод сжатия : С потерями
    Бит/(Пиксели*Кадры) : 0.278
    Размер потока : 639 Мбайт (91%)
    Библиотека кодирования : XviD 73
    Аудио
    Идентификатор : 1
    Формат : AC-3
    Формат/Информация : Audio Coding 3
    Расширение режима : CM (complete main)
    Параметр Endianness формата : Big
    Идентификатор кодека : 2000
    Продолжительность : 44 м.
    Вид битрейта : Постоянный
    Битрейт : 192 Кбит/сек
    Каналы : 2 канала
    Расположение каналов : Front: L R
    Частота : 48,0 КГц
    Метод сжатия : С потерями
    Размер потока : 61,4 Мбайт (9%)
    Выравнивание : Разделение по промежуткам
    Продолжительность промежутка : 40 мс. (1,00 видеокадр)
    Время предзагрузки промежутка : 500 мс.

    Скриншоты

    Скачать .torrent

    Скачать торрент-файл бесплатно и на максимальной скорости!

    Как скачивать? · Что такое торрент? · Рейтинг и ограничения

    !ВНИМАНИЕ!
    Сайт не распространяет и не хранит электронные версии произведений, а занимается лишь лишь предоставлением доступа к создаваемому пользователями каталогу ссылок на торрент-файлы, которые содержат только списки хеш-сумм, убедительная просьба с жалобами обращаться напрямую к пользователю. Файлы для обмена на трекере предоставлены пользователями сайта, и администрация не несёт ответственности за их содержание. Просьба не заливать файлы, защищенные авторскими правами, а также файлы нелегального содержания!


    _________________
    [Профиль] [ЛС]
    Показать сообщения:    
    Ответить на тему

    Текущее время: Сегодня, в 19:49

    Часовой пояс: GMT + 2



    Вы не можете начинать темы
    Вы не можете отвечать на сообщения
    Вы не можете редактировать свои сообщения
    Вы не можете удалять свои сообщения
    Вы не можете голосовать в опросах
    Вы не можете прикреплять файлы к сообщениям
    Вы не можете скачивать файлы