BitTorrentTracker PerecTracker.org
BitTorrentTracker PerecTracker.org
    
Регистрация  ·  Вход
 
 · 
Забыли пароль?

  • Семейный альбом / Сезон: 1 / Серии: 1-14 из 14 (Леонид Прудовский) [2015, Мелодрама, история, семейная сага, HDTVRip 720p]

    Ответить на тему
     
    Автор Сообщение

    rechyn

    Создавать темы 26-Фев-2016 21:54

           

    [Цитировать]

    Семейный альбом-Год выпуска: 2015
    Производство: Россия, Кинокомпания «Щука»
    Жанр: Мелодрама, история, семейная сага
    Продолжительность: ~ 00:50:00 / Серия
    Субтитры: Нет-Режиссёр: Леонид Прудовский
    В ролях: Игорь Скляр, Татьяна Черкасова, Даниил Страхов, Екатерина Олькина, Иван Шибанов, Ксения Суркова, Эра Зиганшина, Борис Романов, Евгений Сидихин, Зоя Буряк, Владимир Фридман, Владимир Матвеев, Виталий Олечкин, Вячеслав Аркунов, Роман Фёдоров, Валерия Шкирандо, Елена Лопаткина, Никита Барсуков, Ксения Алексеева, Мария Рочева-Описание: Пятидесятые годы 20 века. СССР. Время, когда наши бабушки и дедушки были молодыми, когда молодой была страна и граждане ее верили, что еще нынешнее поколение будет жить при коммунизме. То, что сейчас кажется пафосом, было настоящей жизнью и настоящей любовью – к своей родине, к профессии, к людям, к стране. Большая семья академика Колокольцева живет на даче под Ленинградом: сам академик с женой, Колокольцев-младший - тоже блестящий ученый-физик, его жена и две дочери, Ольга и Катя. В 1955 году проект Колокольцева-младшего неожиданно закрывают - в тот самый момент, когда ученый стоит на пороге большого открытия. Вскоре после этого Колокольцев погибает при таинственных обстоятельствах. И семья начинает разваливаться на части - измены, страхи, старые обиды и новые увлечения словно разводят героев в разные стороны из старого и родного дома. Все они так или иначе оказываются перед сложнейшим выбором: что важнее - личный успех, большая наука, карьера, родина - или семья, то единственное место, где человеку по-настоящему хорошо, где его любят и принимают таким, как есть. И все герои делают свой выбор - иногда роковой...-Релиз: Rip by olegka7373 от RG GeneralFilm
    Реклама: Отсутствует
    Все раздачи сериала
    Семпл-Качество: HDTVRip 720p
    Формат: MKV
    Видео кодек: AVC
    Аудио кодек: AC3
    Видео: MPEG-4 AVC, ~ 3500 Кбит/с, 1280x720, 25 кадр/с, 0.152 Бит/(Пиксели*Кадры)
    Аудио: AC3, 2 ch, 192 Кбит/с, 48,0 КГц

    MI

    Общее
    Уникальный идентификатор : 182132070756956832588657682745607850786 (0x89055C635052EE8084280688D88C0B22)
    Полное имя : D:\Jeti glaza naprotiv.HDTVRip.(720p).GeneralFilm\Jeti glaza naprotiv.01.HDTVRip.(720p).GeneralFilm.mkv
    Формат : Matroska
    Версия формата : Version 2
    Размер файла : 1,25 Гбайт
    Продолжительность : 48 м.
    Общий поток : 3694 Кбит/сек
    Дата кодирования : UTC 2016-02-08 19:03:15
    Программа кодирования : mkvmerge v6.1.0 ('Old Devil') built on Mar 4 2013 09:10:42
    Библиотека кодирования : libebml v1.3.0 + libmatroska v1.4.0
    Видео
    Идентификатор : 1
    Формат : AVC
    Формат/Информация : Advanced Video Codec
    Профиль формата : High@L4.1
    Параметр CABAC формата : Да
    Параметр ReFrames формата : 9 кадров
    Идентификатор кодека : V_MPEG4/ISO/AVC
    Продолжительность : 48 м.
    Битрейт : 3500 Кбит/сек
    Ширина : 1280 пикселей
    Высота : 720 пикселей
    Соотношение сторон : 16:9
    Режим частоты кадров : Постоянный
    Частота кадров : 25,000 кадров/сек
    Цветовое пространство : YUV
    Субдискретизация насыщенности : 4:2:0
    Битовая глубина : 8 бит
    Тип развёртки : Прогрессивная
    Бит/(Пиксели*Кадры) : 0.152
    Размер потока : 1,16 Гбайт (93%)
    Библиотека кодирования : x264 core 130 r2273 b3065e6
    Настройки программы : cabac=1 / ref=9 / deblock=1:-2:-1 / analyse=0x3:0x113 / me=umh / subme=9 / psy=1 / psy_rd=1.00:0.15 / mixed_ref=1 / me_range=32 / chroma_me=1 / trellis=2 / 8x8dct=1 / cqm=0 / deadzone=21,11 / fast_pskip=0 / chroma_qp_offset=-3 / threads=6 / lookahead_threads=1 / sliced_threads=0 / nr=0 / decimate=0 / interlaced=0 / bluray_compat=0 / constrained_intra=0 / bframes=9 / b_pyramid=2 / b_adapt=2 / b_bias=0 / direct=1 / weightb=1 / open_gop=0 / weightp=2 / keyint=250 / keyint_min=25 / scenecut=40 / intra_refresh=0 / rc_lookahead=50 / rc=2pass / mbtree=1 / bitrate=3500 / ratetol=1.0 / qcomp=0.60 / qpmin=0 / qpmax=69 / qpstep=4 / cplxblur=20.0 / qblur=0.5 / vbv_maxrate=50000 / vbv_bufsize=50000 / nal_hrd=none / ip_ratio=1.40 / aq=2:1.00
    Default : Да
    Forced : Нет
    Основные цвета : BT.709
    Характеристики трансфера : BT.709
    Коэффициенты матрицы : BT.709
    Аудио
    Идентификатор : 2
    Формат : AC-3
    Формат/Информация : Audio Coding 3
    Расширение режима : CM (complete main)
    Параметр Endianness формата : Big
    Идентификатор кодека : A_AC3
    Продолжительность : 48 м.
    Вид битрейта : Постоянный
    Битрейт : 192 Кбит/сек
    Каналы : 2 канала
    Расположение каналов : Front: L R
    Частота : 48,0 КГц
    Битовая глубина : 16 бит
    Метод сжатия : С потерями
    Размер потока : 66,5 Мбайт (5%)
    Default : Да
    Forced : Нет

    Скриншоты

    Скачать .torrent

    Скачать торрент-файл бесплатно и на максимальной скорости!

    Как скачивать? · Что такое торрент? · Рейтинг и ограничения

    !ВНИМАНИЕ!
    Сайт не распространяет и не хранит электронные версии произведений, а занимается лишь лишь предоставлением доступа к создаваемому пользователями каталогу ссылок на торрент-файлы, которые содержат только списки хеш-сумм, убедительная просьба с жалобами обращаться напрямую к пользователю. Файлы для обмена на трекере предоставлены пользователями сайта, и администрация не несёт ответственности за их содержание. Просьба не заливать файлы, защищенные авторскими правами, а также файлы нелегального содержания!


    _________________
    [Профиль] [ЛС]
    Показать сообщения:    
    Ответить на тему

    Текущее время: Сегодня, в 19:38

    Часовой пояс: GMT + 2



    Вы не можете начинать темы
    Вы не можете отвечать на сообщения
    Вы не можете редактировать свои сообщения
    Вы не можете удалять свои сообщения
    Вы не можете голосовать в опросах
    Вы не можете прикреплять файлы к сообщениям
    Вы не можете скачивать файлы