BitTorrentTracker PerecTracker.org
BitTorrentTracker PerecTracker.org
    
Регистрация  ·  Вход
 
 · 
Забыли пароль?

  • Помнить / Remember (Атом Эгоян / Atom Egoyan) [2015, Канада, Германия, Драма, Триллер, HDRip] MVO (Parovoz Production)

    Ответить на тему
     
    Автор Сообщение

    rechyn

    Создавать темы 26-Фев-2016 18:17

           

    [Цитировать]

    Помнить / Remember
    Страна: Канада, Германия
    Жанр: Драма, Триллер
    Год выпуска: 2015
    Продолжительность: 01:34:22
    Перевод: Любительский (многоголосый закадровый) Parovoz Production
    Cубтитры: нет
    Режиссер: Атом Эгоян / Atom Egoyan
    В ролях: Дин Норрис, Кристофер Пламмер, Мартин Ландау, Джеймс Кейд, Юрген Прохнов, Генри Черни, Бруно Ганц, Натали Крилл, Питер ДаКуна, Джанет Портер, София Уэллс, Дуан Мюррэй
    Описание: 90-летний Зев, переживший Холокост, узнает, что охранник-нацист, виновный в гибели его семьи во время войны, благополучно живет в Америке под чужим именем. Зев отправляется туда вершить правосудие.
    Дата мировой премьеры: 10 сентября 2015
    Дата премьеры в России: 24 марта 2016
    Доп. информация: релиз без рекламы!


    Качество видео: HDRip
    Формат видео: AVI
    Видео: XviD 66, 720x400, 16:9, 23,976 fps, ~1643 kbps, 0.238 bit/pixel
    Аудио: MP3,48 КГц, 192 kbps, 2/0 (L,R) ch, (Русский)

    MediaInfo

    Общее
    Полное имя : Z:\Pomnit.HDRip.avi
    Формат : AVI
    Формат/Информация : Audio Video Interleave
    Размер файла : 1,22 Гбайт
    Продолжительность : 1 ч. 34 м.
    Общий поток : 1845 Кбит/сек
    Программа кодирования : VirtualDubMod 1.5.10.3 | www.virtualdub-fr.org || (build 2550/release)
    Библиотека кодирования : VirtualDubMod build 2550/release
    Видео
    Идентификатор : 0
    Формат : MPEG-4 Visual
    Профиль формата : Advanced Simple@L5
    Параметр BVOP формата : 2
    Параметр QPel формата : Нет
    Параметр GMC формата : Без точки перехода
    Параметр матрицы формата : Default (H.263)
    Режим смешивания : Сжатый битовый поток
    Идентификатор кодека : XVID
    Идентификатор кодека/Подсказка : XviD
    Продолжительность : 1 ч. 34 м.
    Битрейт : 1643 Кбит/сек
    Ширина : 720 пикселей
    Высота : 400 пикселей
    Соотношение сторон : 16:9
    Частота кадров : 23,976 кадра/сек
    Цветовое пространство : YUV
    Субдискретизация насыщенности : 4:2:0
    Битовая глубина : 8 бит
    Тип развёртки : Прогрессивная
    Метод сжатия : С потерями
    Бит/(Пиксели*Кадры) : 0.238
    Размер потока : 1,08 Гбайт (89%)
    Библиотека кодирования : XviD 66
    Аудио
    Идентификатор : 1
    Формат : MPEG Audio
    Версия формата : Version 1
    Профиль формата : Layer 3
    Режим : Joint stereo
    Расширение режима : MS Stereo
    Идентификатор кодека : 55
    Идентификатор кодека/Подсказка : MP3
    Продолжительность : 1 ч. 34 м.
    Вид битрейта : Постоянный
    Битрейт : 192 Кбит/сек
    Каналы : 2 канала
    Частота : 48,0 КГц
    Метод сжатия : С потерями
    Размер потока : 130 Мбайт (10%)
    Выравнивание : Соединение по промежуткам
    Продолжительность промежутка : 42 мс. (1,00 видеокадр)
    Время предзагрузки промежутка : 504 мс.

    Скриншот c названием фильма

    Скриншоты

    Скачать .torrent

    Скачать торрент-файл бесплатно и на максимальной скорости!

    Как скачивать? · Что такое торрент? · Рейтинг и ограничения

    !ВНИМАНИЕ!
    Сайт не распространяет и не хранит электронные версии произведений, а занимается лишь лишь предоставлением доступа к создаваемому пользователями каталогу ссылок на торрент-файлы, которые содержат только списки хеш-сумм, убедительная просьба с жалобами обращаться напрямую к пользователю. Файлы для обмена на трекере предоставлены пользователями сайта, и администрация не несёт ответственности за их содержание. Просьба не заливать файлы, защищенные авторскими правами, а также файлы нелегального содержания!


    _________________
    [Профиль] [ЛС]
    Показать сообщения:    
    Ответить на тему

    Текущее время: Сегодня, в 07:54

    Часовой пояс: GMT + 2



    Вы не можете начинать темы
    Вы не можете отвечать на сообщения
    Вы не можете редактировать свои сообщения
    Вы не можете удалять свои сообщения
    Вы не можете голосовать в опросах
    Вы не можете прикреплять файлы к сообщениям
    Вы не можете скачивать файлы