BitTorrentTracker PerecTracker.org
BitTorrentTracker PerecTracker.org
    
Регистрация  ·  Вход
 
 · 
Забыли пароль?

  • Слабоумие / Dementia (Майк Тестин / Mike Testin) [2015, США, ужасы, триллер, HDRip] VO (Xixidok) + Original Eng

    Ответить на тему
     
    Автор Сообщение

    rechyn

    Создавать темы 26-Фев-2016 14:05

           

    [Цитировать]

    Слабоумие / Dementia
    Страна: США
    Жанр: ужасы, триллер
    Год выпуска: 2015
    Продолжительность: 01:29:53-Перевод: Одноголосный закадровый Xixidok
    Cубтитры: нет
    Оригинальная аудиодорожка: английский-Режиссер: Майк Тестин / Mike Testin-В ролях: Джин Джонс, Кристина Клебе, Питер Силелла, Ричард Рили, Стив Эйджи, Джулиан Бэйн, Джастин Бенсон, Морган Питер Браун, Джо Бурк-Описание: После того, как пожилому ветерану войны поставили диагноз слабоумие, за ним вынуждена присматривать бывшая семья, которая нанимает сиделку. Сходящий с ума ветеран, начинает утверждать, что она его пытается убить, но все улики показывают на него., Так, что на самом деле происходит в доме? Дело рук слабоумного старика или сиделки, у которой своя зловещая тайна.-Сэмпл: http://sendfile.su/1207485-Качество видео: HDRip
    Качество: HDRip (исходник: 1080p HDRip)
    Формат видео: AVI
    Видео: 720x304 (2.37:1), 23.976 fps, XviD build 66 ~1752 kbps avg, 0.33 bit/pixel
    Аудио 1: 48 kHz, AC3 Dolby Digital, 2/0 (L,R) ch, ~192 kbps / русский
    Аудио 2: 48 kHz, AC3 Dolby Digital, 3/2 (L,C,R,l,r) + LFE ch, ~384 kbps / оригинал

    MediaInfo

    Формат : AVI
    Формат/Информация : Audio Video Interleave
    Размер файла : 1,47 Гбайт
    Продолжительность : 1 ч. 29 м.
    Общий поток : 2343 Кбит/сек
    Видео
    Идентификатор : 0
    Формат : MPEG-4 Visual
    Профиль формата : Advanced Simple@L5
    Параметр BVOP формата : 2
    Параметр QPel формата : Нет
    Параметр GMC формата : Без точки перехода
    Параметр матрицы формата : Default (H.263)
    Идентификатор кодека : XVID
    Идентификатор кодека/Подсказка : XviD
    Продолжительность : 1 ч. 29 м.
    Битрейт : 1753 Кбит/сек
    Ширина : 720 пикселей
    Высота : 304 пикселя
    Соотношение сторон : 2,35:1
    Частота кадров : 23,976 (23976/1000) кадра/сек
    Цветовое пространство : YUV
    Субдискретизация насыщенности : 4:2:0
    Битовая глубина : 8 бит
    Тип развёртки : Прогрессивная
    Метод сжатия : С потерями
    Бит/(Пиксели*Кадры) : 0.334
    Размер потока : 1,10 Гбайт (75%)
    Библиотека кодирования : XviD 66
    Аудио #1
    Идентификатор : 1
    Формат : AC-3
    Формат/Информация : Audio Coding 3
    Расширение режима : CM (complete main)
    Параметр Endianness формата : Big
    Идентификатор кодека : 2000
    Продолжительность : 1 ч. 29 м.
    Вид битрейта : Постоянный
    Битрейт : 192 Кбит/сек
    Каналы : 2 канала
    Расположение каналов : Front: L R
    Частота : 48,0 КГц
    Частота кадров : 31,250 кадров/сек (1536 spf)
    Метод сжатия : С потерями
    Размер потока : 123 Мбайт (8%)
    Выравнивание : Разделение по промежуткам
    Продолжительность промежутка : 42 мс. (1,00 видеокадр)
    Время предзагрузки промежутка : 500 мс.
    Аудио #2
    Идентификатор : 2
    Формат : AC-3
    Формат/Информация : Audio Coding 3
    Расширение режима : CM (complete main)
    Параметр Endianness формата : Big
    Идентификатор кодека : 2000
    Продолжительность : 1 ч. 29 м.
    Вид битрейта : Постоянный
    Битрейт : 384 Кбит/сек
    Каналы : 6 каналов
    Расположение каналов : Front: L C R, Side: L R, LFE
    Частота : 48,0 КГц
    Частота кадров : 31,250 кадров/сек (1536 spf)
    Метод сжатия : С потерями
    Размер потока : 247 Мбайт (16%)
    Выравнивание : Соединение по промежуткам
    Продолжительность промежутка : 42 мс. (1,00 видеокадр)
    Время предзагрузки промежутка : 512 мс.

    Скриншот c названием фильма

    Скриншоты






    Скачать .torrent

    Скачать торрент-файл бесплатно и на максимальной скорости!

    Как скачивать? · Что такое торрент? · Рейтинг и ограничения

    !ВНИМАНИЕ!
    Сайт не распространяет и не хранит электронные версии произведений, а занимается лишь лишь предоставлением доступа к создаваемому пользователями каталогу ссылок на торрент-файлы, которые содержат только списки хеш-сумм, убедительная просьба с жалобами обращаться напрямую к пользователю. Файлы для обмена на трекере предоставлены пользователями сайта, и администрация не несёт ответственности за их содержание. Просьба не заливать файлы, защищенные авторскими правами, а также файлы нелегального содержания!


    _________________
    [Профиль] [ЛС]
    Показать сообщения:    
    Ответить на тему

    Текущее время: Сегодня, в 11:50

    Часовой пояс: GMT + 2



    Вы не можете начинать темы
    Вы не можете отвечать на сообщения
    Вы не можете редактировать свои сообщения
    Вы не можете удалять свои сообщения
    Вы не можете голосовать в опросах
    Вы не можете прикреплять файлы к сообщениям
    Вы не можете скачивать файлы