BitTorrentTracker PerecTracker.org
BitTorrentTracker PerecTracker.org
    
Регистрация  ·  Вход
 
 · 
Забыли пароль?

  • Тувианский / Tuviansky (Рики Шелах Ниссимоф / Riki Shelach Nissimoff) [2014, Израиль, триллер, драма, HDTVRip] + Sub Rus, Heb + Original Heb

    Ответить на тему
     
    Автор Сообщение

    rechyn

    Создавать темы 26-Фев-2016 14:05

           

    [Цитировать]

    Тувианский / Tuviansky
    Страна: Израиль
    Жанр: триллер, драма
    Год выпуска: 2014
    Продолжительность: 01:21:59
    Перевод: Субтитры
    Cубтитры: русские (softsub, ASS), иврит (hardsub)
    Оригинальная аудиодорожка: иврит
    Режиссер: Рики Шелах Ниссимоф / Riki Shelach Nissimoff
    В ролях: Миха Селектар, Шира Каценеленбоген, Майкл Леон, Эйтан Лонднер, Эйнав Маркел, Идо Моссери, Ори Феффер, Эльдад Фрибас, Решеф Поли, Марина Шойф
    Описание: Тувианский - капитан Армии обороны Израиля. Во время Войны за независимость Израиля (1948) необоснованно обвинён в шпионаже и расстрелян. Посмертно реабилитирован.
    Доп. информация: , , Википедия
    Сэмпл: http://www.mediafire.com/watch/r01scefcb59gqz1/Sample_-_Tuviansky.avi
    Качество видео: HDTVRip
    Формат видео: AVI
    Видео: XviD 624х352 16:9 25 кадров/сек 1054 Кбит/сек
    Аудио: MP3 48 КГц 2 канала 128 Кбит/сек
    Формат субтитров: softsub (ASS)

    Образец субтитров

    Dialogue: 0,0:50:17.44,0:50:21.27,Default,,0,0,0,,Вы знакомы с руководителем компании\Nангличанином Майклом Брайнтом?
    Dialogue: 0,0:50:21.28,0:50:24.03,Default,,0,0,0,,Конечно, все в компании знают его.
    Dialogue: 0,0:50:24.04,0:50:28.99,Default,,0,0,0,,- Когда вы видели его последний раз?\N- 10 дней назад, может быть, 3 недели.
    Dialogue: 0,0:50:29.00,0:50:33.75,Default,,0,0,0,,Тувианский, я хочу, чтобы вы уточнили, окей?
    Dialogue: 0,0:50:33.85,0:50:36.02,Default,,0,0,0,,Я не помню точно день.
    Dialogue: 0,0:50:36.04,0:50:40.83,Default,,0,0,0,,Он приехал из арабского Иерусалима\Nи был у нас около часа.
    Dialogue: 0,0:50:40.84,0:50:45.79,Default,,0,0,0,,Вы знаете, что он ездит с нашей территории\Nв восточный Иерусалим, верно?
    Dialogue: 0,0:50:45.80,0:50:48.35,Default,,0,0,0,,И вы знаете, что восточный Иерусалим\Nпод властью Иордании,
    Dialogue: 0,0:50:48.36,0:50:51.55,Default,,0,0,0,,- армия которой обстреливает нас оттуда, верно?\N- Да, все знают это.
    Dialogue: 0,0:50:51.56,0:50:53.35,Default,,0,0,0,,Да, все знают это.
    Dialogue: 0,0:50:53.36,0:50:55.95,Default,,0,0,0,,Но вы передаёте Брайнту\Nнаши самые важные секреты.
    Dialogue: 0,0:50:55.96,0:50:58.11,Default,,0,0,0,,Признайтесь, Тувианский,\Nне прикидывайтесь дурачком здесь.
    Dialogue: 0,0:50:58.12,0:51:00.41,Default,,0,0,0,,Признаться в чём?\NЯ не передавал Брайнту никаких секретов.
    Dialogue: 0,0:51:00.51,0:51:03.68,Default,,0,0,0,,- Нет? Не передавал?\N- Нет - Нет?
    Dialogue: 0,0:51:03.76,0:51:06.63,Default,,0,0,0,,Не передавал?
    Dialogue: 0,0:51:06.64,0:51:11.64,Default,,0,0,0,,Тувианский, ты - не только предатель,\Nты ещё и лжец!
    Dialogue: 0,0:51:14.64,0:51:18.47,Default,,0,0,0,,Это - список, который ты передал Брайнту,\Nнаписанный твоей рукой.
    Dialogue: 0,0:51:18.48,0:51:21.23,Default,,0,0,0,,Пожалуйста, список стратегических целей\Nв Иерусалиме.
    Dialogue: 0,0:51:21.23,0:51:23.07,Default,,0,0,0,,Ты знаком с этим списком, Тувианский?
    Dialogue: 0,0:51:23.08,0:51:23.99,Default,,0,0,0,,Я могу посмотреть список?
    Dialogue: 0,0:51:24.00,0:51:25.67,Default,,0,0,0,,Тебе не нужно смотреть тот список,
    Dialogue: 0,0:51:25.68,0:51:27.55,Default,,0,0,0,,ты знаешь точно, о каком списке я говорю.
    Dialogue: 0,0:51:27.56,0:51:32.56,Default,,0,0,0,,О списке стратегических объектов в Иерусалиме,\Nкоторый Брайнт попросил у тебя.

    MediaInfo

    Общее
    Полное имя : Tuviansky.avi
    Формат : AVI
    Формат/Информация : Audio Video Interleave
    Размер файла : 701 Мбайт
    Продолжительность : 1 ч. 21 м.
    Режим общего битрейта : Переменный
    Общий поток : 1195 Кбит/сек
    Программа кодирования : VirtualDubMod 1.5.10.2 (build 2540/release)
    Библиотека кодирования : VirtualDub build 35491/release
    Видео
    Идентификатор : 0
    Формат : MPEG-4 Visual
    Профиль формата : Advanced Simple@L5
    Параметр BVOP формата : 2
    Параметр QPel формата : Нет
    Параметр GMC формата : Без точки перехода
    Параметр матрицы формата : Default (H.263)
    Идентификатор кодека : XVID
    Идентификатор кодека/Подсказка : XviD
    Продолжительность : 1 ч. 21 м.
    Битрейт : 1054 Кбит/сек
    Ширина : 624 пикселя
    Высота : 352 пикселя
    Соотношение сторон : 16:9
    Частота кадров : 25,000 кадров/сек
    Цветовое пространство : YUV
    Субдискретизация насыщенности : 4:2:0
    Битовая глубина : 8 бит
    Тип развёртки : Чересстрочная
    Порядок развёртки : Нижнее поле первое
    Метод сжатия : С потерями
    Бит/(Пиксели*Кадры) : 0.192
    Размер потока : 618 Мбайт (88%)
    Библиотека кодирования : XviD 64
    Аудио
    Идентификатор : 1
    Формат : MPEG Audio
    Версия формата : Version 1
    Профиль формата : Layer 3
    Режим : Joint stereo
    Расширение режима : MS Stereo
    Идентификатор кодека : 55
    Идентификатор кодека/Подсказка : MP3
    Продолжительность : 1 ч. 21 м.
    Вид битрейта : Переменный
    Битрейт : 128 Кбит/сек
    Каналы : 2 канала
    Частота : 48,0 КГц
    Метод сжатия : С потерями
    Размер потока : 75,2 Мбайт (11%)
    Выравнивание : Соединение по промежуткам
    Продолжительность промежутка : 24 мс. (0,60 видеокадр)
    Время предзагрузки промежутка : 514 мс.

    Скриншот c названием фильма

    Скриншоты

    Скачать .torrent

    Скачать торрент-файл бесплатно и на максимальной скорости!

    Как скачивать? · Что такое торрент? · Рейтинг и ограничения

    !ВНИМАНИЕ!
    Сайт не распространяет и не хранит электронные версии произведений, а занимается лишь лишь предоставлением доступа к создаваемому пользователями каталогу ссылок на торрент-файлы, которые содержат только списки хеш-сумм, убедительная просьба с жалобами обращаться напрямую к пользователю. Файлы для обмена на трекере предоставлены пользователями сайта, и администрация не несёт ответственности за их содержание. Просьба не заливать файлы, защищенные авторскими правами, а также файлы нелегального содержания!


    _________________
    [Профиль] [ЛС]
    Показать сообщения:    
    Ответить на тему

    Текущее время: Сегодня, в 15:56

    Часовой пояс: GMT + 2



    Вы не можете начинать темы
    Вы не можете отвечать на сообщения
    Вы не можете редактировать свои сообщения
    Вы не можете удалять свои сообщения
    Вы не можете голосовать в опросах
    Вы не можете прикреплять файлы к сообщениям
    Вы не можете скачивать файлы