BitTorrentTracker PerecTracker.org
BitTorrentTracker PerecTracker.org
    
Регистрация  ·  Вход
 
 · 
Забыли пароль?

  • Золушка / Cinderella (Кеннет Брана / Kenneth Branagh) [2015, США, Великобритания, фэнтези, драма, мелодрама, семейный, BDRip 1080p] Dub + Sub Rus, Eng, Ukr + Original Eng

    Ответить на тему
     
    Автор Сообщение

    Flirldrerve

    Создавать темы 26-Фев-2016 01:29

           

    [Цитировать]

    Золушка / Cinderella
    Страна: США, Великобритания
    Жанр: фэнтези, драма, мелодрама, семейный
    Год выпуска: 2015
    Продолжительность: 01:45:22
    Перевод: Профессиональный (дублированный)
    Cубтитры: Russian (iTunes), Ukrainian (iTunes), English (iTunes)
    Оригинальная аудиодорожка: английский-Режиссер: Кеннет Брана / Kenneth Branagh-В ролях: Лили Джеймс, Кейт Бланшетт, Ричард Мэдден, Хелена Бонем Картер, Нонсо Анози, Стеллан Скарсгард, Софи МакШера, Холлидей Грейнджер, Дерек Джекоби, Бен Чаплин-Описание: Отец молодой девушки по имени Элла, овдовев, женится во второй раз, и вскоре Элла оказывается один на один с жадными и завистливыми новыми родственницами – мачехой Леди Тремэйн и ее дочерьми - Анастасией и Дризеллой. Из хозяйки дома она превращается в служанку, вечно испачканную золой, за что и получает от своих сварливых сводных сестриц прозвище – Золушка. Несмотря на злоключения, выпавшие на ее долю, Золушка не отчаивается, ведь даже в самые тяжелые моменты находится что-то, что помогает ей думать о хорошем: например, случайная встреча на лесной тропинке с прекрасным юношей. Элла даже не предполагает, что встретилась с самим принцем, и что вскоре Фея-крестная навсегда поменяет её жизнь к лучшему.-Релиз от: -Рип от Ivandro!-Качество видео: BDRip | Sample
    Формат видео: MKV
    Видео: 1920x804 at 23.976 fps, x264@L4.1, 2pass, ~13.9 Mbps avg
    Аудио 1: Russian: 48 kHz, AC3, 3/2 (L,C,R,l,r) + LFE ch, ~640.00 kbps avg |Дубляж, Blu-ray NOR|
    Аудио 2: Ukrainian: 48 kHz, AC3, 3/2 (L,C,R,l,r) + LFE ch, ~384.00 kbps avg |Дубляж, iTunes|
    Аудио 3: English: 48 kHz, DTS, 3/2 (L,C,R,l,r) + LFE ch, ~1536.00 kbps avg
    Аудио 4: English: 48 kHz, AC3, 2/0 (L,R) ch, ~320.00 kbps avg |Descriptive|-Дополнительно
    Цитата:
    Цитата:

    • Сохранены оригинальные чаптеры как на Blu-ray.

    MediaInfo

    Format                      : Matroska
    Format version              : Version 2
    File size                   : 12.3 GiB
    Duration                    : 1h 45mn
    Overall bit rate            : 16.8 Mbps
    Movie name                  : Cinderella (2015) - Release for HDCLUB
    Encoded date                : UTC 2015-08-15 21:39:27
    Writing application         : mkvmerge v3.4.0 ('Rapunzel') built on May 15 2010 09:38:20
    Writing library             : libebml v0.8.0 + libmatroska v0.9.0
    Video
    ID                          : 1
    Format                      : AVC
    Format/Info                 : Advanced Video Codec
    Format profile              : High@L4.1
    Format settings, CABAC      : Yes
    Format settings, ReFrames   : 5 frames
    Codec ID                    : V_MPEG4/ISO/AVC
    Duration                    : 1h 45mn
    Bit rate                    : 13.9 Mbps
    Width                       : 1 920 pixels
    Height                      : 804 pixels
    Display aspect ratio        : 2.40:1
    Frame rate mode             : Constant
    Frame rate                  : 23.976 (24000/1001) fps
    Color space                 : YUV
    Chroma subsampling          : 4:2:0
    Bit depth                   : 8 bits
    Scan type                   : Progressive
    Bits/(Pixel*Frame)          : 0.376
    Stream size                 : 9.99 GiB (81%)
    Title                       : Cinderella (2015) - Release for HDCLUB
    Writing library             : x264 core 142 r2431+42 c69a006 tMod [8-bit@4:2:0 X86_64]
    Encoding settings           : cabac=1 / ref=5 / deblock=1:-3:-3 / analyse=0x3:0x133 / me=umh / subme=10 / psy=1 / fade_compensate=0.00 / psy_rd=1.05:0.00 / mixed_ref=1 / me_range=48 / chroma_me=1 / trellis=2 / 8x8dct=1 / cqm=0 / deadzone=21,11 / fast_pskip=0 / chroma_qp_offset=-2 / threads=18 / lookahead_threads=4 / sliced_threads=0 / nr=0 / decimate=1 / interlaced=0 / bluray_compat=0 / constrained_intra=0 / fgo=0 / bframes=10 / b_pyramid=2 / b_adapt=2 / b_bias=0 / direct=3 / weightb=1 / open_gop=0 / weightp=2 / keyint=250 / keyint_min=23 / scenecut=40 / intra_refresh=0 / rc_lookahead=40 / rc=2pass / mbtree=0 / bitrate=13900 / ratetol=1.0 / qcomp=0.65 / qpmin=0:0:0 / qpmax=69:69:69 / qpstep=4 / cplxblur=20.0 / qblur=0.5 / vbv_maxrate=62500 / vbv_bufsize=78125 / nal_hrd=none / filler=0 / ip_ratio=1.20 / pb_ratio=1.10 / aq=3:0.75 / aq-sensitivity=10.00 / aq-factor=1.00:1.00:1.00 / aq2=0 / aq3=0
    Language                    : English
    Default                     : Yes
    Forced                      : No
    Audio #1
    ID                          : 2
    Format                      : AC-3
    Format/Info                 : Audio Coding 3
    Mode extension              : CM (complete main)
    Format settings, Endianness : Big
    Codec ID                    : A_AC3
    Duration                    : 1h 45mn
    Bit rate mode               : Constant
    Bit rate                    : 640 Kbps
    Channel(s)                  : 6 channels
    Channel positions           : Front: L C R, Side: L R, LFE
    Sampling rate               : 48.0 KHz
    Frame rate                  : 31.250 fps (1536 spf)
    Compression mode            : Lossy
    Stream size                 : 482 MiB (4%)
    Title                       : AC3 5.1 @ 640 kbps - DUB, Blu-ray NOR
    Language                    : Russian
    Default                     : Yes
    Forced                      : No
    Audio #2
    ID                          : 3
    Format                      : AC-3
    Format/Info                 : Audio Coding 3
    Mode extension              : CM (complete main)
    Format settings, Endianness : Big
    Codec ID                    : A_AC3
    Duration                    : 1h 45mn
    Bit rate mode               : Constant
    Bit rate                    : 384 Kbps
    Channel(s)                  : 6 channels
    Channel positions           : Front: L C R, Side: L R, LFE
    Sampling rate               : 48.0 KHz
    Frame rate                  : 31.250 fps (1536 spf)
    Compression mode            : Lossy
    Stream size                 : 289 MiB (2%)
    Title                       : AC3 5.1 @ 384 kbps - DUB, iTunes
    Language                    : Ukrainian
    Default                     : No
    Forced                      : No
    Audio #3
    ID                          : 4
    Format                      : DTS
    Format/Info                 : Digital Theater Systems
    Mode                        : 16
    Format settings, Endianness : Big
    Codec ID                    : A_DTS
    Duration                    : 1h 45mn
    Bit rate mode               : Constant
    Bit rate                    : 1 509 Kbps
    Channel(s)                  : 6 channels
    Channel positions           : Front: L C R, Side: L R, LFE
    Sampling rate               : 48.0 KHz
    Frame rate                  : 93.750 fps (512 spf)
    Bit depth                   : 24 bits
    Compression mode            : Lossy
    Delay relative to video     : 11ms
    Stream size                 : 1.11 GiB (9%)
    Title                       : DTS 5.1 @ 1536 kbps
    Language                    : English
    Default                     : No
    Forced                      : No
    Audio #4
    ID                          : 5
    Format                      : AC-3
    Format/Info                 : Audio Coding 3
    Format profile              : Dolby Digital
    Mode extension              : CM (complete main)
    Format settings, Endianness : Big
    Codec ID                    : A_AC3
    Duration                    : 1h 45mn
    Bit rate mode               : Constant
    Bit rate                    : 320 Kbps
    Channel(s)                  : 2 channels
    Channel positions           : Front: L R
    Sampling rate               : 48.0 KHz
    Frame rate                  : 31.250 fps (1536 spf)
    Compression mode            : Lossy
    Stream size                 : 241 MiB (2%)
    Title                       : AC3 2.0 @ 320 kbps - Descriptive
    Language                    : English
    Default                     : No
    Forced                      : No
    Text #1
    ID                          : 6
    Format                      : UTF-8
    Codec ID                    : S_TEXT/UTF8
    Codec ID/Info               : UTF-8 Plain Text
    Title                       : iTunes
    Language                    : Russian
    Default                     : No
    Forced                      : No
    Text #2
    ID                          : 7
    Format                      : UTF-8
    Codec ID                    : S_TEXT/UTF8
    Codec ID/Info               : UTF-8 Plain Text
    Title                       : iTunes
    Language                    : Ukrainian
    Default                     : No
    Forced                      : No
    Text #3
    ID                          : 8
    Format                      : UTF-8
    Codec ID                    : S_TEXT/UTF8
    Codec ID/Info               : UTF-8 Plain Text
    Title                       : iTunes
    Language                    : English
    Default                     : No
    Forced                      : No
    Menu
    00:00:00.000                : en:00:00:00.000
    00:06:35.437                : en:00:06:35.437
    00:13:58.588                : en:00:13:58.588
    00:17:56.117                : en:00:17:56.117
    00:22:05.574                : en:00:22:05.574
    00:26:36.762                : en:00:26:36.762
    00:31:17.876                : en:00:31:17.876
    00:34:37.701                : en:00:34:37.701
    00:38:39.400                : en:00:38:39.400
    00:42:54.697                : en:00:42:54.697
    00:52:52.753                : en:00:52:52.753
    01:03:13.957                : en:01:03:13.957
    01:10:54.667                : en:01:10:54.667
    01:16:46.352                : en:01:16:46.352
    01:20:41.754                : en:01:20:41.754
    01:25:36.089                : en:01:25:36.089
    01:28:27.177                : en:01:28:27.177
    01:39:11.529                : en:01:39:11.529

    Скриншоты

    Скачать .torrent

    Скачать торрент-файл бесплатно и на максимальной скорости!

    Как скачивать? · Что такое торрент? · Рейтинг и ограничения

    !ВНИМАНИЕ!
    Сайт не распространяет и не хранит электронные версии произведений, а занимается лишь лишь предоставлением доступа к создаваемому пользователями каталогу ссылок на торрент-файлы, которые содержат только списки хеш-сумм, убедительная просьба с жалобами обращаться напрямую к пользователю. Файлы для обмена на трекере предоставлены пользователями сайта, и администрация не несёт ответственности за их содержание. Просьба не заливать файлы, защищенные авторскими правами, а также файлы нелегального содержания!


    _________________
    [Профиль] [ЛС]
    Показать сообщения:    
    Ответить на тему

    Текущее время: Сегодня, в 19:51

    Часовой пояс: GMT + 2



    Вы не можете начинать темы
    Вы не можете отвечать на сообщения
    Вы не можете редактировать свои сообщения
    Вы не можете удалять свои сообщения
    Вы не можете голосовать в опросах
    Вы не можете прикреплять файлы к сообщениям
    Вы не можете скачивать файлы