Register  ·  Log in
Forgot password?

  • Американский герой / American Hero (Ник Лав / Nick Love) [2015, США, Фантастика, боевик, комедия, HDRip] VO (datynet; перевод: Куценко)

    Reply to topic
    Author Message


    Post 26-Feb-2016 02:29



    Американский герой / American HeroСтрана: США
    Жанр: Фантастика, боевик, комедия
    Год выпуска: 2015
    Продолжительность: 01:26:16
    Перевод: Одноголосый закадровый datynet; перевод: Куценко
    Cубтитры: нет
    Режиссер: Ник Лав / Nick Love
    В ролях: Стивен Дорфф, Эдди Гриффин, Андреа Коэн, Луис Да Силва мл., Кина Фергюсон, Рэден Грир, Грэйсон Килпэтрик, Йоханс Майлс
    Описание: Мелвин — супергерой поневоле, который живёт только ради лёгких денег, женщин и наркотиков. Но однажды он понимает, что единственный способ наладить отношения со своим единственным сыном — встать на путь исправления.
    Доп. информация:

    Качество видео: HDRip
    Формат видео: AVI
    Видео: 720x384 (1.88:1), 23.976 fps, XviD MPEG-4 ~1793 kbps avg, 0.27 bit/pixel
    Аудио: 48 kHz, MPEG Layer 3, 2 ch, ~192.00 kbps avg


    Complete name : E:\American.Hero.2015.avi
    Format : AVI
    Format/Info : Audio Video Interleave
    File size : 1.20 GiB
    Duration : 1h 26mn
    Overall bit rate : 1 995 Kbps
    Writing library : VirtualDub build 35576/release
    ID : 0
    Format : MPEG-4 Visual
    Format profile : Advanced Simple@L5
    Format settings, BVOP : 2
    Format settings, QPel : No
    Format settings, GMC : No warppoints
    Format settings, Matrix : Default (H.263)
    Codec ID : XVID
    Codec ID/Hint : XviD
    Duration : 1h 26mn
    Bit rate : 1 794 Kbps
    Width : 720 pixels
    Height : 384 pixels
    Display aspect ratio : 1.85:1
    Frame rate : 23.976 fps
    Color space : YUV
    Chroma subsampling : 4:2:0
    Bit depth : 8 bits
    Scan type : Progressive
    Compression mode : Lossy
    Bits/(Pixel*Frame) : 0.271
    Stream size : 1.08 GiB (90%)
    Writing library : XviD 66
    ID : 1
    Format : MPEG Audio
    Format version : Version 1
    Format profile : Layer 3
    Codec ID : 55
    Codec ID/Hint : MP3
    Duration : 1h 26mn
    Bit rate mode : Constant
    Bit rate : 192 Kbps
    Channel(s) : 2 channels
    Sampling rate : 48.0 KHz
    Compression mode : Lossy
    Stream size : 118 MiB (10%)
    Alignment : Split accross interleaves
    Interleave, duration : 42 ms (1.00 video frame)
    Interleave, preload duration : 500 ms

    Скриншот c названием фильма


    Download .torrent

    Download free and at maximum speed!

    How to Download? · What is a torrent? · Ratings and Limitations

    The site does not extend and does not store electronic(digital) versions of products, and only gives access to a reference catalogue created by users on torrent-files which contain only lists of the hash-sums, the earnest entreaty, with complaints(abuse) to access directly to the user. Files for an exchange on tracker are given by users of a site, and the administration does not bear the responsibility for their maintenance. The request to not fill in the files protected by copyrights, and also files of the illegal maintenance!

    [Profile] [PM]
    Display posts from previous:    
    Reply to topic

    The time now is: Today 20:22

    All times are GMT + 3 Hours

    You cannot post new topics in this forum
    You cannot reply to topics in this forum
    You cannot edit your posts in this forum
    You cannot delete your posts in this forum
    You cannot vote in polls in this forum
    You cannot attach files in this forum
    You cannot download files in this forum