BitTorrentTracker PerecTracker.org
BitTorrentTracker PerecTracker.org
    
Регистрация  ·  Вход
 
 · 
Забыли пароль?

  • Секретные материалы / The X-Files / Сезон: 10 / Серии: 1-6 из 6 (Крис Картер, Дэрин Морган, Глен Морган) [2016, Фантастика, триллер, драма, детектив, WEB-DLRip] Dub (ТВ-3) + Original

    Ответить на тему
     
    Автор Сообщение

    rechyn

    Создавать темы 25-Фев-2016 22:39

           

    [Цитировать]

    Секретные материалыThe X-Files-Год выпуска: 2016
    Страна: США
    Жанр: Фантастика, триллер, драма, детектив
    Продолжительность: ~00:43:00
    Перевод: Профессиональный (дублированный) ТВ-3-Режиссёр: Крис Картер, Дэрин Морган, Глен Морган
    В ролях: Дэвид Духовны, Джиллиан Андерсон, Митч Пиледжи, Уильям Б. Дэвис, Робби Амелл, Том Брэйдвуд, Дин Хэглунд, Брюс Харвуд, Джоэл МакХэйл, Лорен Эмброуз-Описание: Самый популярный сериал про внеземные цивилизации и таинственные явления снова выходит на экраны «Секретные материалы: Перезагрузка» 10 сезон. Прошлый сезон данного проекта зрители смогли видеть почти тринадцать лет назад. Сейчас создатели телеканала Fox решили возродить нашумевший сериал. В роли самых лучших сыщиков снова выступают, несравненная агент Дана Скалли роль, которой исполняет Джиллиан Андерсон и обаятельный агент Малдер (Дэвид Духовны). Может быть, главные герои изменились на такой промежуток времени. С самого начала агент Скалли не верила в сверхъестественные силы и пыталась найти достойные объяснения происходящему. А агент Малдер, наоборот, верил во все, ведь еще в детстве он видел, как его младшую сестру похитили пришельцы прямо из их дома.-Доп. информация: Без рекламных ВидеоАудио вставок-Альтернативные раздачи
    Сэмпл-Качество: WEB-DLRip
    Формат: AVI
    Видео: XviD, 720x400 (16:9), 23,976 fps, ~1500 kbps
    Аудио Rus.: MP3, 48 kHz, 2 ch, 128 kbps
    Аудио Eng.: MP3, 48 kHz, 2 ch, 128 kbps
    Субтитры: русские, вшитые, на надписи

    Серии

    01. Моя борьба / My Struggle

    Фокс Малдер и Дана Скалли связываются с Тэдом О'Мэлли, ведущим популярного конспирологического интернет-шоу, который считает, что раскрыл большой правительственный заговор. С помощью заместителя директора ФБР Уолтера Скиннера, О'Мэлли хочет заручиться поддержкой бывших агентов Секретных материалов Малдера и Скалли, которые с тех пор разорвали отношения с ФБР. Через О'Мэлли они знакомятся со Светой, возможной жертвой похищения инопланетянами, которая делится шокирующей информацией, оспаривающей все, во что Малдер когда-либо верил о существовании инопланетян и роли правительства в их сокрытии.

    02. Мутация Основателя / Founder's Mutation

    Учёный, работающий на Министерство обороны США, неожиданно совершает самоубийство. В ходе расследования Малдер и Скалли находят секретную лабораторию, где уже на протяжении десятилетий изучают детей с генетическими заболеваниями.

    03. Малдер и Скалли встречают двуликого монстра / Mulder and Scully Meet the Were-Monster

    Когда в лесу находят мертвое тело, Малдер и Скалли проводят расследование, было ли это нападение животного, серийного убийцы или может быть странного существа, которое описали очевидцы. Тем временем, Малдер противостоит своим собственным демонам в чувстве разочарования в деле всей своей жизни.

    04. Снова дом / Home Again

    Малдер и Скалли отправляются на расследование убийства городского чиновника, которое вряд ли мог бы совершить человек. Тем временем, Скалли сталкивается с личной трагедией, которая возвращает былые чувства к ребенку, которого она отдала на усыновление.

    05. Вавилон / Babylon

    Когда взрывают художественную галерею, которая выставляет потенциально нежелательное искусство, Малдер и Скалли ищут какой-то способ общения с подрывником, находящимся в коматозном состоянии, с целью предотвращения будущих атак. Между тем, пара молодых агентов ФБР ведущих дело, давит на Малдера и Скалли, чтобы проверить свои собственные убеждения, поскольку Скалли ищет ответы в неврологии, а Малдер в мистике.

    06. Моя борьба II / My Struggle II

    ПРасследование, которое Малдер и Скалли начали со сторонником теории заговора и ведущим веб-ТВ-шоу Тэдом О`Мэлли, кажется, пробудило могущественных врагов. Распространяется паника, когда люди по всей стране начинают тяжело заболевать, и Скалли должна попытаться найти лекарство. Тем временем, Малдер сталкивается с человеком, который, как он считает, стоит за всем этим, но другая фигура из прошлого Малдера и Скалли может оказаться ключом к их спасению.

    MediaInfo

    Полное имя                               : The.X-Files.S10.WEB-DLRip.RusEng.TV3\The.X-Files.S10E01.WEB-DLRip.RusEng.TV3.L.avi
    Формат                                   : AVI
    Формат/Информация                        : Audio Video Interleave
    Размер файла                             : 560 Мбайт
    Продолжительность                        : 43 м.
    Общий поток                              : 1783 Кбит/сек
    Программа кодирования                    : VirtualDubMod 1.5.10.3 (build 2550/release)
    Библиотека кодирования                   : VirtualDubMod build 2550/release
    Видео
    Идентификатор                            : 0
    Формат                                   : MPEG-4 Visual
    Профиль формата                          : Advanced Simple@L5
    Параметр BVOP формата                    : 1
    Параметр QPel формата                    : Нет
    Параметр GMC формата                     : Без точки перехода
    Параметр матрицы формата                 : Default (H.263)
    Идентификатор кодека                     : XVID
    Идентификатор кодека/Подсказка           : XviD
    Продолжительность                        : 43 м.
    Битрейт                                  : 1513 Кбит/сек
    Ширина                                   : 720 пикселей
    Высота                                   : 400 пикселей
    Соотношение сторон                       : 16:9
    Частота кадров                           : 23,976 кадра/сек
    Цветовое пространство                    : YUV
    Субдискретизация насыщенности            : 4:2:0
    Битовая глубина                          : 8 бит
    Тип развёртки                            : Прогрессивная
    Метод сжатия                             : С потерями
    Бит/(Пиксели*Кадры)                      : 0.219
    Размер потока                            : 476 Мбайт (85%)
    Библиотека кодирования                   : XviD 73
    Аудио #1
    Идентификатор                            : 1
    Формат                                   : MPEG Audio
    Версия формата                           : Version 1
    Профиль формата                          : Layer 3
    Режим                                    : Joint stereo
    Расширение режима                        : MS Stereo
    Идентификатор кодека                     : 55
    Идентификатор кодека/Подсказка           : MP3
    Продолжительность                        : 43 м.
    Вид битрейта                             : Постоянный
    Битрейт                                  : 128 Кбит/сек
    Каналы                                   : 2 канала
    Частота                                  : 48,0 КГц
    Метод сжатия                             : С потерями
    Размер потока                            : 40,2 Мбайт (7%)
    Выравнивание                             : Соединение по промежуткам
    Продолжительность промежутка             : 42  мс. (1,00 видеокадр)
    Время предзагрузки промежутка            : 504  мс.
    Аудио #2
    Идентификатор                            : 2
    Формат                                   : MPEG Audio
    Версия формата                           : Version 1
    Профиль формата                          : Layer 3
    Режим                                    : Joint stereo
    Расширение режима                        : MS Stereo
    Идентификатор кодека                     : 55
    Идентификатор кодека/Подсказка           : MP3
    Продолжительность                        : 43 м.
    Вид битрейта                             : Постоянный
    Битрейт                                  : 128 Кбит/сек
    Каналы                                   : 2 канала
    Частота                                  : 48,0 КГц
    Метод сжатия                             : С потерями
    Размер потока                            : 40,2 Мбайт (7%)
    Выравнивание                             : Соединение по промежуткам
    Продолжительность промежутка             : 42  мс. (1,00 видеокадр)
    Время предзагрузки промежутка            : 504  мс.

    Скриншоты

    Скачать .torrent

    Скачать торрент-файл бесплатно и на максимальной скорости!

    Как скачивать? · Что такое торрент? · Рейтинг и ограничения

    !ВНИМАНИЕ!
    Сайт не распространяет и не хранит электронные версии произведений, а занимается лишь лишь предоставлением доступа к создаваемому пользователями каталогу ссылок на торрент-файлы, которые содержат только списки хеш-сумм, убедительная просьба с жалобами обращаться напрямую к пользователю. Файлы для обмена на трекере предоставлены пользователями сайта, и администрация не несёт ответственности за их содержание. Просьба не заливать файлы, защищенные авторскими правами, а также файлы нелегального содержания!


    _________________
    [Профиль] [ЛС]
    Показать сообщения:    
    Ответить на тему

    Текущее время: Сегодня, в 08:06

    Часовой пояс: GMT + 2



    Вы не можете начинать темы
    Вы не можете отвечать на сообщения
    Вы не можете редактировать свои сообщения
    Вы не можете удалять свои сообщения
    Вы не можете голосовать в опросах
    Вы не можете прикреплять файлы к сообщениям
    Вы не можете скачивать файлы