BitTorrentTracker PerecTracker.org
BitTorrentTracker PerecTracker.org
    
Регистрация  ·  Вход
 
 · 
Забыли пароль?

  • Золотая клетка (Иллюзия любви) / Серии: 1-8 из 8 (Сергей Кешишев) [2015, Мелодрама, криминал, WEBRip]

    Ответить на тему
     
    Автор Сообщение

    rechyn

    Создавать темы 25-Фев-2016 22:35

           

    [Цитировать]

    Золотая клетка (Иллюзия любви)Год выпуска: 2015
    Производитель : Россия, ООО Кинокомпания «Маркес»
    Жанр: Мелодрама, криминал
    Продолжительность: 45 мин.
    Cубтитры: нет
    Режиссер: Сергей Кешишев
    В ролях: Ирина Антоненко, Дмитрий Исаев, Станислав Бондаренко, Алексей Суренский, Юлия Яблонская, Нина Курпякова, Евгений Кушпель, Юрий Пронин, Сергей Походаев, Евгения Каверау, Ольга Житник, Артём Крестников, Роман Синицын, Слава Степанян, Владимир Довжик, Алексей Эйбоженко (мл.), Василий Шмаков, Екатерина Куликова, Валерий Скорокосов, Татьяна Лебедькова, Анна Канарис, Василий Стоноженко, Анна Алексеева, Юрий Печенежский
    Описание: Красавица медсестра Алина вынуждена бежать из родного города после череды ужасных и трагических событий. В Москве Алина работает сиделкой у пострадавшего в аварии молодого миллионера и оказывается полностью в его власти. Но это ли настоящая любовь? Вскоре Алина снова остается одна. Спасаясь от преследователя, который не остановится, пока не найдет ее, Алина полностью меняет свою жизнь, но за внешним благополучием и фасадами красивых домов скрываются тайны, которые лучше никому не знать...
    Все раздачи сериала
    Сэмпл
    Качество: WEBRip
    Формат: AVI
    Видео кодек: XviD
    Аудио кодек: AC3
    Видео: 720x400 (1.80:1), 25 fps, XviD build 73 ~1648 kbps avg, 0.22 bit/pixel
    Аудио: 48 kHz, AC3 Dolby Digital, 2/0 (L,R) ch, ~192.00 kbps avg

    MI

    General
    Complete name : Y:\раздачи\Zolotaya kletka.2015.WEB-DLRip.RG.Russkie.serialy.&.Files-x.Zolotaya kletka.2015.WEB-DLRip.RG.Russkie.serialy.&.Files-x.avi
    Format : AVI
    Format/Info : Audio Video Interleave
    File size : 1.37 GiB
    Duration : 1h 31mn
    Overall bit rate : 2 144 Kbps
    Writing application : VirtualDubMod 1.5.10.3 | www.virtualdub-fr.org || (build 2550/release)
    Writing library : VirtualDubMod build 2550/release
    Video
    ID : 0
    Format : MPEG-4 Visual
    Format profile : Advanced Simple@L5
    Format settings, BVOP : 1
    Format settings, QPel : No
    Format settings, GMC : No warppoints
    Format settings, Matrix : Custom
    Codec ID : XVID
    Codec ID/Hint : XviD
    Duration : 1h 31mn
    Bit rate : 1 942 Kbps
    Width : 720 pixels
    Height : 400 pixels
    Display aspect ratio : 16:9
    Frame rate : 25.000 fps
    Color space : YUV
    Chroma subsampling : 4:2:0
    Bit depth : 8 bits
    Scan type : Progressive
    Compression mode : Lossy
    Bits/(Pixel*Frame) : 0.270
    Stream size : 1.24 GiB (91%)
    Writing library : XviD 73
    Audio
    ID : 1
    Format : AC-3
    Format/Info : Audio Coding 3
    Mode extension : CM (complete main)
    Format settings, Endianness : Big
    Codec ID : 2000
    Duration : 1h 31mn
    Bit rate mode : Constant
    Bit rate : 192 Kbps
    Channel(s) : 2 channels
    Channel positions : Front: L R
    Sampling rate : 48.0 KHz
    Compression mode : Lossy
    Stream size : 125 MiB (9%)
    Alignment : Split accross interleaves
    Interleave, duration : 40 ms (1.00 video frame)
    Interleave, preload duration : 500 ms

    Скриншоты

    Скачать .torrent

    Скачать торрент-файл бесплатно и на максимальной скорости!

    Как скачивать? · Что такое торрент? · Рейтинг и ограничения

    !ВНИМАНИЕ!
    Сайт не распространяет и не хранит электронные версии произведений, а занимается лишь лишь предоставлением доступа к создаваемому пользователями каталогу ссылок на торрент-файлы, которые содержат только списки хеш-сумм, убедительная просьба с жалобами обращаться напрямую к пользователю. Файлы для обмена на трекере предоставлены пользователями сайта, и администрация не несёт ответственности за их содержание. Просьба не заливать файлы, защищенные авторскими правами, а также файлы нелегального содержания!


    _________________
    [Профиль] [ЛС]
    Показать сообщения:    
    Ответить на тему

    Текущее время: Сегодня, в 14:07

    Часовой пояс: GMT + 2



    Вы не можете начинать темы
    Вы не можете отвечать на сообщения
    Вы не можете редактировать свои сообщения
    Вы не можете удалять свои сообщения
    Вы не можете голосовать в опросах
    Вы не можете прикреплять файлы к сообщениям
    Вы не можете скачивать файлы