BitTorrentTracker PerecTracker.org
BitTorrentTracker PerecTracker.org
    
Регистрация  ·  Вход
 
 · 
Забыли пароль?

  • Семейный альбом / Сезон: 1 / Серии: 1-14 из 14 (Леонид Прудовский) [2015, Мелодрама, история, семейная сага, HDTVRip]

    Ответить на тему
     
    Автор Сообщение

    rechyn

    Создавать темы 25-Фев-2016 22:33

           

    [Цитировать]

    Семейный альбом-Год выпуска: 2015
    Производство: Россия, Кинокомпания «Щука»
    Жанр: Мелодрама, история, семейная сага
    Продолжительность: ~ 00:50:00 / Серия
    Субтитры: Нет-Режиссёр: Леонид Прудовский
    В ролях: Игорь Скляр, Татьяна Черкасова, Даниил Страхов, Екатерина Олькина, Иван Шибанов, Ксения Суркова, Эра Зиганшина, Борис Романов, Евгений Сидихин, Зоя Буряк, Владимир Фридман, Владимир Матвеев, Виталий Олечкин, Вячеслав Аркунов, Роман Фёдоров, Валерия Шкирандо, Елена Лопаткина, Никита Барсуков, Ксения Алексеева, Мария Рочева-Описание: Пятидесятые годы 20 века. СССР. Время, когда наши бабушки и дедушки были молодыми, когда молодой была страна и граждане ее верили, что еще нынешнее поколение будет жить при коммунизме. То, что сейчас кажется пафосом, было настоящей жизнью и настоящей любовью – к своей родине, к профессии, к людям, к стране. Большая семья академика Колокольцева живет на даче под Ленинградом: сам академик с женой, Колокольцев-младший - тоже блестящий ученый-физик, его жена и две дочери, Ольга и Катя. В 1955 году проект Колокольцева-младшего неожиданно закрывают - в тот самый момент, когда ученый стоит на пороге большого открытия. Вскоре после этого Колокольцев погибает при таинственных обстоятельствах. И семья начинает разваливаться на части - измены, страхи, старые обиды и новые увлечения словно разводят героев в разные стороны из старого и родного дома. Все они так или иначе оказываются перед сложнейшим выбором: что важнее - личный успех, большая наука, карьера, родина - или семья, то единственное место, где человеку по-настоящему хорошо, где его любят и принимают таким, как есть. И все герои делают свой выбор - иногда роковой...-Релиз: Rip by olegka7373 от RG GeneralFilm
    Реклама: Отсутствует
    Все раздачи сериала
    Семпл-Качество: HDTVRip
    Формат: AVI
    Видео кодек: XviD
    Аудио кодек: AC3
    Видео: MPEG4, XviD, 720x400 (16:9), 25.000 fps, 1 800 Kbps (0.250 bit/pixel)
    Аудио: AC3, 48.0 KHz, 2 ch, 192 Kbps, CBR

    MI

    General
    Complete name : E:\Фильмы\Semejnyj al'bom.HDTVRip.GeneralFilm\Semejnyj al'bom.01.HDTVRip.GeneralFilm.avi
    Format : AVI
    Format/Info : Audio Video Interleave
    File size : 767 MiB
    Duration : 53mn 34s
    Overall bit rate : 2 002 Kbps
    Writing application : VirtualDubMod 1.5.10.3 (build 2550/release)
    Writing library : VirtualDubMod build 2550/release
    Video
    ID : 0
    Format : MPEG-4 Visual
    Format profile : Advanced Simple@L5
    Format settings, BVOP : Yes
    Format settings, QPel : No
    Format settings, GMC : No warppoints
    Format settings, Matrix : Custom
    Codec ID : XVID
    Codec ID/Hint : XviD
    Duration : 53mn 34s
    Bit rate : 1 800 Kbps
    Width : 720 pixels
    Height : 400 pixels
    Display aspect ratio : 16:9
    Frame rate : 25.000 fps
    Color space : YUV
    Chroma subsampling : 4:2:0
    Bit depth : 8 bits
    Scan type : Progressive
    Compression mode : Lossy
    Bits/(Pixel*Frame) : 0.250
    Stream size : 690 MiB (90%)
    Writing library : XviD 73
    Audio
    ID : 1
    Format : AC-3
    Format/Info : Audio Coding 3
    Mode extension : CM (complete main)
    Format settings, Endianness : Big
    Codec ID : 2000
    Duration : 53mn 34s
    Bit rate mode : Constant
    Bit rate : 192 Kbps
    Channel(s) : 2 channels
    Channel positions : Front: L R
    Sampling rate : 48.0 KHz
    Bit depth : 16 bits
    Compression mode : Lossy
    Stream size : 73.6 MiB (10%)
    Alignment : Split accross interleaves
    Interleave, duration : 40 ms (1.00 video frame)
    Interleave, preload duration : 500 ms

    Скриншоты

    Скачать .torrent

    Скачать торрент-файл бесплатно и на максимальной скорости!

    Как скачивать? · Что такое торрент? · Рейтинг и ограничения

    !ВНИМАНИЕ!
    Сайт не распространяет и не хранит электронные версии произведений, а занимается лишь лишь предоставлением доступа к создаваемому пользователями каталогу ссылок на торрент-файлы, которые содержат только списки хеш-сумм, убедительная просьба с жалобами обращаться напрямую к пользователю. Файлы для обмена на трекере предоставлены пользователями сайта, и администрация не несёт ответственности за их содержание. Просьба не заливать файлы, защищенные авторскими правами, а также файлы нелегального содержания!


    _________________
    [Профиль] [ЛС]
    Показать сообщения:    
    Ответить на тему

    Текущее время: Сегодня, в 20:46

    Часовой пояс: GMT + 2



    Вы не можете начинать темы
    Вы не можете отвечать на сообщения
    Вы не можете редактировать свои сообщения
    Вы не можете удалять свои сообщения
    Вы не можете голосовать в опросах
    Вы не можете прикреплять файлы к сообщениям
    Вы не можете скачивать файлы