BitTorrentTracker PerecTracker.org
BitTorrentTracker PerecTracker.org
    
Регистрация  ·  Вход
 
 · 
Забыли пароль?

  • Тайна в их глазах / Secret in Their Eyes (Билли Рэй / Billy Ray ) [2015, США, Триллер, детектив, BDRip, HD (720p)] DUB + Original + sub (eng)

    Ответить на тему
     
    Автор Сообщение

    Flirldrerve

    Создавать темы 25-Фев-2016 17:05

           

    [Цитировать]

    Тайна в их глазах / Secret in Their Eyes
    «Don't look away»
    6.518 / 10 6.20 / 10
    -Год выпуска: 2015
    Страна: США
    Жанр: Триллер, детектив
    Продолжительность: 01:51:39
    Перевод: Дублированный (iTunes)
    Оригинальная аудиодорожка: Есть
    Cубтитры: Английские, Английские SDH
    Режиссёр: Билли Рэй
    Сценарий: Билли Рэй, Хуан Хосе Кампанелла, Эдуардо Сачери
    Продюсер: Мэтт Джексон, Марк Джонсон, Мэтт Беренсон
    Оператор: Дэниэл Модер
    Композитор: Эмилио Каудерер
    Художник: Нельсон Коутс, Колин Де Руан, Шэй Канлифф
    Монтаж: Джим Пейдж
    В ролях: Чиветель Эджиофор, Николь Кидман, Джулия Робертс, Дин Норрис, Альфред Молина, Джо Коул, Майкл Келли, Зои Грэм, Патрик Дэвис, Эйлин Фогарти
    Сборы в США: $20 180 155
    Сборы в России: $665 960
    Мировая премьера: 12 ноября 2015
    Премьера (РФ): 19 ноября 2015, «Централ Партнершип»
    Описание: Привычное течение жизни дружной команды федералов нарушает страшная трагедия: жестоко убита дочь следователя Джесс… Доказательств недостаточно, и подозреваемого приходится отпустить. Но Рэй, напарник Джесс, безнадежно влюбленный в их начальницу, не оставляет попыток докопаться до истины. И вот спустя десятилетие появляется шанс раскрыть тайну гибели девушки. У правосудия, мести и любви нет сроков давности.-Качество исходника: BDRemux (HDClub)
    Качество: BDRip
    Тип: HD (720p)
    Контейнер: M4V
    Видео: H.264, 1280x536, 2.40:1, 3 500 Kbps, 23.976 (24000/1001) fps
    Аудио 1: Русский/Дублированный (iTunes), AAC / 2.0 / 157 Kbps / 48.0 KHz
    Аудио 2: Английский/Оригинальная дорожка , AAC / 2.0 / 156 Kbps / 48.0 KHz
    Аудио 3: Русский/Дублированный (iTunes), AC-3 / 5.1 / 384 Kbps / 48.0 KHz
    Аудио 4: Английский/Оригинальная дорожка , AC-3 / 5.1 / 640 Kbps / 48.0 KHz
    Субтитры 1: Английские полные
    Субтитры 2: Английские SDH
    -

    iTunes Meta Tags

    Sort Name: Secret In Their Eyes
    XID: Apple:vendor_id:2015-568355
    contentID: 1054644512
    Copyright: © 2015 Universal Studios. All Rights Reserved.
    Screenwriters: Билли Рэй, Хуан Хосе Кампанелла, Эдуардо Сачери
    Producers: Мэтт Джексон, Марк Джонсон, Мэтт Беренсон
    Director: Билли Рэй
    Cast: Чиветель Эджиофор, Николь Кидман, Джулия Робертс, Дин Норрис, Альфред Молина, Джо Коул, Майкл Келли, Зои Грэм, Патрик Дэвис, Эйлин Фогарти, Денис Беспалый, Елена Ивасишина, Татьяна Шитова, Сергей Чихачев, Александр Новиков
    Studio: STX Entertainment
    Rating: 4
    Long Description: Привычное течение жизни дружной команды федералов нарушает страшная трагедия: жестоко убита дочь следователя Джесс... Доказательств недостаточно, и подозреваемого приходится отпустить. Но Рэй, напарник Джесс, безнадежно влюбленный в их начальницу, не оставляет попыток докопаться до истины. И вот спустя десятилетие появляется шанс раскрыть тайну гибели девушки. У правосудия, мести и любви нет сроков давности.
    Description: Привычное течение жизни дружной команды федералов нарушает страшная трагедия: жестоко убита дочь следователя Джесс... Доказательств недостаточно, и подозреваемого приходится отпустить. Но Рэй, напарник Джесс, безнадежно влюбленный в их начальницу, не оставляет попыток докопаться до истины. И вот спустя десятилетие появляется шанс раскрыть тайну гибели девушки. У правосудия, мести и любви нет сроков давности.
    Release Date: 2015-11-12T08:00:00Z
    Genre: Drama
    Artist: Billy Ray
    Name: Secret In Their Eyes (2015)

    MediaInfo

    General
    Complete name : /Users/imac/HandBrake/Secret in Their Eyes (720p HD).m4v
    Format : MPEG-4
    Codec ID : M4V  (M4V /M4A /mp42/isom)
    File size : 3.78 GiB
    Duration : 1h 51mn
    Overall bit rate mode : Variable
    Overall bit rate : 4 844 Kbps
    Movie name : Secret In Their Eyes (2015)
    Performer : Billy Ray
    Director : Билли Рэй
    Actor : Чиветель Эджиофор / Николь Кидман / Джулия Робертс / Дин Норрис / Альфред Молина / Джо Коул / Майкл Келли / Зои Грэм / Патрик Дэвис / Эйлин Фогарти / Денис Беспалый / Елена Ивасишина / Татьяна Шитова / Сергей Чихачев / Александр Новиков
    Screenplay by : Билли Рэй / Хуан Хосе Кампанелла / Эдуардо Сачери
    Producer : Мэтт Джексон / Марк Джонсон / Мэтт Беренсон
    Production studio : STX Entertainment
    Genre : Drama
    ContentType : Short Film
    Description : Привычное течение жизни дружной команды федералов нарушает страшная трагедия: жестоко убита дочь следователя Джесс... Доказательств недостаточно, и подозреваемого приходится отпустить. Но Рэй, напарник Джесс, безнадежно влюбленный в их начальницу, не оставляет попыток докопаться до истины. И вот спустя десятилетие появляется шанс раскрыть тайну гибели девушки. У правосудия, мести и любви нет сроков давности.
    Recorded date : UTC 2015-11-12 08:00:00
    Encoded date : UTC 2016-02-25 09:55:17
    Tagged date : UTC 2016-02-25 09:57:32
    Copyright : © 2015 Universal Studios. All Rights Reserved.
    Cover : Yes
    Rating : None
    Title/Sort : Secret In Their Eyes
    LongDescription : Привычное течение жизни дружной команды федералов нарушает страшная трагедия: жестоко убита дочь следователя Джесс... Доказательств недостаточно, и подозреваемого приходится отпустить. Но Рэй, напарник Джесс, безнадежно влюбленный в их начальницу, не оставляет попыток докопаться до истины. И вот спустя десятилетие появляется шанс раскрыть тайну гибели девушки. У правосудия, мести и любви нет сроков давности.
    HDVideo : Yes
    AppleStoreCatalogID : 1054644512
    Vendor : Apple:vendor_id:2015-568355
    ContentRating : mpaa|PG-13|300|
    Video #1
    ID : 1
    Format : AVC
    Format/Info : Advanced Video Codec
    Format profile : High@L3.1
    Format settings, CABAC : No
    Format settings, ReFrames : 3 frames
    Codec ID : avc1
    Codec ID/Info : Advanced Video Coding
    Duration : 1h 51mn
    Source duration : 1h 51mn
    Bit rate : 3 500 Kbps
    Width : 1 280 pixels
    Height : 536 pixels
    Display aspect ratio : 2.40:1
    Frame rate mode : Variable
    Frame rate : 23.976 (24000/1001) fps
    Minimum frame rate : 23.974 fps
    Maximum frame rate : 23.981 fps
    Color space : YUV
    Chroma subsampling : 4:2:0
    Bit depth : 8 bits
    Scan type : Progressive
    Bits/(Pixel*Frame) : 0.213
    Stream size : 2.73 GiB (72%)
    Source stream size : 2.73 GiB (72%)
    Title : Main Program
    Writing library : x264 core 142 r2479 dd79a61
    Encoding settings : cabac=0 / ref=3 / deblock=1:-3:-3 / analyse=0x3:0x113 / me=umh / subme=9 / psy=1 / psy_rd=1.00:0.15 / mixed_ref=1 / me_range=32 / chroma_me=1 / trellis=0 / 8x8dct=1 / cqm=0 / deadzone=21,11 / fast_pskip=0 / chroma_qp_offset=-2 / threads=36 / lookahead_threads=3 / sliced_threads=0 / nr=0 / decimate=0 / interlaced=0 / bluray_compat=0 / constrained_intra=0 / bframes=3 / b_pyramid=0 / b_adapt=2 / b_bias=0 / direct=1 / weightb=0 / open_gop=0 / weightp=0 / keyint=240 / keyint_min=24 / scenecut=40 / intra_refresh=0 / rc_lookahead=40 / rc=2pass / mbtree=1 / bitrate=3500 / ratetol=1.0 / qcomp=0.65 / qpmin=0 / qpmax=69 / qpstep=4 / cplxblur=20.0 / qblur=0.5 / vbv_maxrate=9500 / vbv_bufsize=9500 / nal_hrd=none / filler=0 / ip_ratio=1.40 / aq=1:1.10
    Language : English
    Encoded date : UTC 2016-02-25 09:55:17
    Tagged date : UTC 2016-02-25 09:55:26
    Color range : Limited
    Color primaries : BT.709
    Transfer characteristics : BT.709
    Matrix coefficients : BT.709
    Menus : 8,9
    Video #2
    ID : 9
    Format : JPEG
    Codec ID : jpeg
    Duration : 1h 51mn
    Bit rate mode : Variable
    Bit rate : 712 bps
    Width : 640 pixels
    Height : 268 pixels
    Display aspect ratio : 2.40:1
    Frame rate mode : Variable
    Frame rate : 0.003 fps
    Minimum frame rate : 0.002 fps
    Maximum frame rate : 0.004 fps
    Color space : YUV
    Chroma subsampling : 4:2:0
    Bit depth : 8 bits
    Compression mode : Lossy
    Bits/(Pixel*Frame) : 1.384
    Stream size : 580 KiB (0%)
    Title : Chapter Images
    Language : English
    Default : No
    Encoded date : UTC 2016-02-25 09:56:23
    Tagged date : UTC 2016-02-25 09:56:23
    Menu For : 1
    Audio #1
    ID : 2
    Format : AAC
    Format/Info : Advanced Audio Codec
    Format profile : LC
    Codec ID : 40
    Duration : 1h 51mn
    Bit rate mode : Variable
    Bit rate : 157 Kbps
    Maximum bit rate : 246 Kbps
    Channel(s) : 2 channels
    Channel positions : Front: L R
    Sampling rate : 48.0 KHz
    Frame rate : 46.875 fps (1024 spf)
    Compression mode : Lossy
    Stream size : 125 MiB (3%)
    Title : Russian Stereo
    Language : Russian
    Default : Yes
    Alternate group : 1
    Encoded date : UTC 2016-02-25 09:55:17
    Tagged date : UTC 2016-02-25 09:56:19
    Fallback From : 4
    Audio #2
    ID : 3
    Format : AAC
    Format/Info : Advanced Audio Codec
    Format profile : LC
    Codec ID : 40
    Duration : 1h 51mn
    Bit rate mode : Variable
    Bit rate : 156 Kbps
    Maximum bit rate : 241 Kbps
    Channel(s) : 2 channels
    Channel positions : Front: L R
    Sampling rate : 48.0 KHz
    Frame rate : 46.875 fps (1024 spf)
    Compression mode : Lossy
    Stream size : 125 MiB (3%)
    Title : English Stereo
    Language : English
    Default : No
    Alternate group : 1
    Encoded date : UTC 2016-02-25 09:55:17
    Tagged date : UTC 2016-02-25 09:56:19
    Fallback From : 5
    Audio #3
    ID : 4
    Format : AC-3
    Format/Info : Audio Coding 3
    Mode extension : CM (complete main)
    Format settings, Endianness : Big
    Codec ID : ac-3
    Duration : 1h 51mn
    Bit rate mode : Constant
    Bit rate : 384 Kbps
    Channel(s) : 6 channels
    Channel positions : Front: L C R, Side: L R, LFE
    Sampling rate : 48.0 KHz
    Frame rate : 31.250 fps (1536 spf)
    Bit depth : 16 bits
    Compression mode : Lossy
    Stream size : 306 MiB (8%)
    Title : Russian DD 5.1
    Language : Russian
    Default : Inherited From: 2
    Alternate group : 1
    Encoded date : UTC 2016-02-25 09:55:17
    Tagged date : UTC 2016-02-25 09:56:19
    Fallback To : 2
    Audio #4
    ID : 5
    Format : AC-3
    Format/Info : Audio Coding 3
    Mode extension : CM (complete main)
    Format settings, Endianness : Big
    Codec ID : ac-3
    Duration : 1h 51mn
    Bit rate mode : Constant
    Bit rate : 640 Kbps
    Channel(s) : 6 channels
    Channel positions : Front: L C R, Side: L R, LFE
    Sampling rate : 48.0 KHz
    Frame rate : 31.250 fps (1536 spf)
    Bit depth : 16 bits
    Compression mode : Lossy
    Stream size : 511 MiB (13%)
    Title : English DD 5.1
    Language : English
    Default : No
    Alternate group : 1
    Encoded date : UTC 2016-02-25 09:55:17
    Tagged date : UTC 2016-02-25 09:56:19
    Fallback To : 3
    Text #1
    ID : 6
    Format : Timed Text
    Muxing mode : sbtl
    Codec ID : tx3g
    Duration : 1h 48mn
    Bit rate mode : Variable
    Bit rate : 64 bps
    Stream size : 50.6 KiB (0%)
    Title : English full
    Language : English
    Default : Yes
    Forced : No
    Alternate group : 2
    Encoded date : UTC 2016-02-25 09:55:17
    Tagged date : UTC 2016-02-25 09:56:17
    Text #2
    ID : 7
    Format : Timed Text
    Muxing mode : sbtl
    Codec ID : tx3g
    Duration : 1h 45mn
    Bit rate mode : Variable
    Bit rate : 66 bps
    Stream size : 50.9 KiB (0%)
    Title : English SDH
    Language : English
    Default : No
    Forced : No
    Alternate group : 2
    Encoded date : UTC 2016-02-25 09:55:17
    Tagged date : UTC 2016-02-25 09:56:16
    Menu #1
    00:00:00.000 : Chapter 1
    00:05:11.853 : Chapter 2
    00:10:52.318 : Chapter 3
    00:18:20.016 : Chapter 4
    00:22:41.485 : Chapter 5
    00:26:47.815 : Chapter 6
    00:34:30.944 : Chapter 7
    00:42:39.724 : Chapter 8
    00:46:31.872 : Chapter 9
    00:51:58.824 : Chapter 10
    00:56:16.582 : Chapter 11
    01:00:18.031 : Chapter 12
    01:05:47.986 : Chapter 13
    01:12:35.017 : Chapter 14
    01:17:29.728 : Chapter 15
    01:21:32.221 : Chapter 16
    01:25:23.201 : Chapter 17
    01:31:16.221 : Chapter 18
    01:37:19.333 : Chapter 19
    01:45:38.123 : Chapter 20
    Menu #2
    ID : 8
    Codec ID : text
    Duration : 1h 51mn
    Language : English
    Encoded date : UTC 2016-02-25 09:56:19
    Tagged date : UTC 2016-02-25 09:56:19
    Menu For : 1
    00:00:00.000 : Chapter 1
    00:05:11.853 : Chapter 2
    00:10:52.318 : Chapter 3
    00:18:20.016 : Chapter 4
    00:22:41.485 : Chapter 5
    00:26:47.815 : Chapter 6
    00:34:30.944 : Chapter 7
    00:42:39.724 : Chapter 8
    00:46:31.872 : Chapter 9
    00:51:58.824 : Chapter 10
    00:56:16.582 : Chapter 11
    01:00:18.031 : Chapter 12
    01:05:47.986 : Chapter 13
    01:12:35.017 : Chapter 14
    01:17:29.728 : Chapter 15
    01:21:32.221 : Chapter 16
    01:25:23.201 : Chapter 17
    01:31:16.221 : Chapter 18
    01:37:19.333 : Chapter 19
    01:45:38.123 : Chapter 20
    Bit rate mode : VBR

    x264 лог

    x264 [info]: frame I:1601  Avg QP:14.32  size:101036
    x264 [info]: frame P:53833 Avg QP:16.13  size: 33104
    x264 [info]: frame B:105198 Avg QP:17.44  size:  9372
    x264 [info]: consecutive B-frames:  3.6% 14.8% 37.2% 44.4%
    x264 [info]: mb I  I16..4:  8.9% 62.9% 28.2%
    x264 [info]: mb P  I16..4:  1.5%  5.2%  1.9%  P16..4: 45.3% 27.3% 11.4%  0.0%  0.0%    skip: 7.5%
    x264 [info]: mb B  I16..4:  0.1%  0.5%  0.1%  B16..8: 45.8% 11.2%  1.5%  direct: 4.6%  skip:36.1%  L0:42.0% L1:51.0% BI: 7.0%
    x264 [info]: 8x8 transform intra:61.6% inter:44.4%
    x264 [info]: coded y,uvDC,uvAC intra: 82.4% 88.6% 78.0% inter: 21.7% 33.4% 25.8%
    x264 [info]: i16 v,h,dc,p: 51% 11%  7% 30%
    x264 [info]: i8 v,h,dc,ddl,ddr,vr,hd,vl,hu: 14%  7%  7% 11% 14% 14% 13% 11% 10%
    x264 [info]: i4 v,h,dc,ddl,ddr,vr,hd,vl,hu: 12%  7%  4% 12% 16% 16% 13% 11%  8%
    x264 [info]: i8c dc,h,v,p: 59% 13% 17% 12%
    x264 [info]: ref P L0: 69.7% 17.9% 12.4%
    x264 [info]: ref B L0: 76.4% 23.6%
    x264 [info]: kb/s:3498.35

    Скриншоты

    -

    Релиз подготовлен для просмотра на Apple TV, iPad, iPhone, iPod Touch.
    Для просмотра данного релиза на компьютере с ОС Windows рекомендуется использовать VLC media player
    Скачать .torrent

    Скачать торрент-файл бесплатно и на максимальной скорости!

    Как скачивать? · Что такое торрент? · Рейтинг и ограничения

    !ВНИМАНИЕ!
    Сайт не распространяет и не хранит электронные версии произведений, а занимается лишь лишь предоставлением доступа к создаваемому пользователями каталогу ссылок на торрент-файлы, которые содержат только списки хеш-сумм, убедительная просьба с жалобами обращаться напрямую к пользователю. Файлы для обмена на трекере предоставлены пользователями сайта, и администрация не несёт ответственности за их содержание. Просьба не заливать файлы, защищенные авторскими правами, а также файлы нелегального содержания!


    _________________
    [Профиль] [ЛС]
    Показать сообщения:    
    Ответить на тему

    Текущее время: Сегодня, в 04:16

    Часовой пояс: GMT + 2



    Вы не можете начинать темы
    Вы не можете отвечать на сообщения
    Вы не можете редактировать свои сообщения
    Вы не можете удалять свои сообщения
    Вы не можете голосовать в опросах
    Вы не можете прикреплять файлы к сообщениям
    Вы не можете скачивать файлы