BitTorrentTracker PerecTracker.org
BitTorrentTracker PerecTracker.org
    
Регистрация  ·  Вход
 
 · 
Забыли пароль?

  • Ускорение / Momentum (Стивен С. Кампанелли / Stephen S. Campanelli) [2015, ЮАР, США, боевик, триллер, BDRip] Dub

    Ответить на тему
     
    Автор Сообщение

    rechyn

    Создавать темы 25-Фев-2016 12:53

           

    [Цитировать]

    Ускорение / Momentum
    Совместное производство: ЮАР, США
    Жанр: боевик, триллер
    Год выпуска: 2015
    Продолжительность: 01:35:55
    Перевод: Профессиональный (дублированный) BD RUS
    Cубтитры: отсутствуют
    Оригинальная аудиодорожка: нет
    Режиссёр: Стивен С. Кампанелли / Stephen S. Campanelli
    Актёры: Ольга Куриленко, Джеймс Пьюрфой, Морган Фриман, Дженна Сарас, Карл Танинг, Ева-Мария Фредрик, Ли-Энн Саммерс, Брендан Мюррэй, и др.
    Краткая аннотация: Алекс, роковая женщина и многоопытная воровка, по предварительному сговору с группой лиц, которых она считала товарищами, решилась на своё последнее ограбление... Когда в товарищах согласья нет - на лад их дело не пойдёт! Поведение у товарищей было как у дошкольников в песочнице, или даже ещё хуже... В том числе и по этой причине, экспроприация бриллиантов из банковской ячейки прошла не совсем удачно... Но это только цветочки, ягодки дальше будут! Вместе с бриллиантами товарищи случайно упёрли флешку со сверхсекретной информацией. Информация принадлежала насквозь прогнившему от коррупции международному секретному синдикату! Синдикат решил-постановил: флешку вернуть, а всех товарищей найти и убрать! Теперь у Алекс только один выход спасти свою шкуру - ноги в руки и бежать! Бежать с закрытыми глазами, как можно дальше, как можно быстрее...

    Качество видео: BDRip [Uskorenie.2015.BDRemux.1080p.mkv nnm-club / BLUEBIRD]
    Формат видео: AVI
    Video: XviD 73 MPEG-4, 720x304 (2.35:1) 23.976 fps, ~951 kbps avg, 0.181 bit/pixel
    Audio: MP-3 Joint stereo, CBR 128 kbps 2 ch, 48.0 KHz

    MediaInfo

    ОбщееПолное имя : S:\Momentum_2015_BDRip_[perectracker.org].aviФормат : AVIФормат/Информация : Audio Video InterleaveРазмер файла : 746 МбайтПродолжительность : 1 ч. 35 м.Общий поток : 1088 Кбит/секНазвание фильма : Momentum_2015_BDRip_[perectracker.org]Режиссёр : OGORODNIKOFFFЖанр : боевик, триллерПрограмма кодирования : VirtualDubModRus 1.5.10.2 (build 2542/release)Формат оригинала/Имя : Фильмы 2011-2015Правообладатель : perectracker.orgПримечание : Дата рипа 24 февраля 2016 года
    ВидеоИдентификатор : 0Формат : MPEG-4 VisualПрофиль формата : Advanced Simple@L5Параметр BVOP формата : 1Параметр QPel формата : НетПараметр GMC формата : Без точки переходаПараметр матрицы формата : ВыборочнаяИдентификатор кодека : DX50Идентификатор кодека/Подсказка : DivX 5Продолжительность : 1 ч. 35 м.Битрейт : 951 Кбит/секШирина : 720 пикселейВысота : 304 пикселяСоотношение сторон : 2,35:1Частота кадров : 23,976 кадра/секЦветовое пространство : YUVСубдискретизация насыщенности : 4:2:0Битовая глубина : 8 битТип развёртки : ПрогрессивнаяМетод сжатия : С потерямиБит/(Пиксели*Кадры) : 0.181Размер потока : 652 Мбайт (87%)Библиотека кодирования : XviD 73
    АудиоИдентификатор : 1Формат : MPEG AudioВерсия формата : Version 1Профиль формата : Layer 3Режим : Joint stereoРасширение режима : MS StereoИдентификатор кодека : 55Идентификатор кодека/Подсказка : MP3Продолжительность : 1 ч. 35 м.Вид битрейта : ПостоянныйБитрейт : 128 Кбит/секКаналы : 2 каналаЧастота : 48,0 КГцМетод сжатия : С потерямиРазмер потока : 87,8 Мбайт (12%)Выравнивание : Соединение по промежуткамПродолжительность промежутка : 42 мс. (1,00 видеокадр)Время предзагрузки промежутка : 504 мс.Библиотека кодирования : LAME3.99.5

    Скриншот c названием фильма

    Скриншоты

    Время раздачи - по возможности.
    Скачать .torrent

    Скачать торрент-файл бесплатно и на максимальной скорости!

    Как скачивать? · Что такое торрент? · Рейтинг и ограничения

    !ВНИМАНИЕ!
    Сайт не распространяет и не хранит электронные версии произведений, а занимается лишь лишь предоставлением доступа к создаваемому пользователями каталогу ссылок на торрент-файлы, которые содержат только списки хеш-сумм, убедительная просьба с жалобами обращаться напрямую к пользователю. Файлы для обмена на трекере предоставлены пользователями сайта, и администрация не несёт ответственности за их содержание. Просьба не заливать файлы, защищенные авторскими правами, а также файлы нелегального содержания!


    _________________
    [Профиль] [ЛС]
    Показать сообщения:    
    Ответить на тему

    Текущее время: Сегодня, в 16:44

    Часовой пояс: GMT + 2



    Вы не можете начинать темы
    Вы не можете отвечать на сообщения
    Вы не можете редактировать свои сообщения
    Вы не можете удалять свои сообщения
    Вы не можете голосовать в опросах
    Вы не можете прикреплять файлы к сообщениям
    Вы не можете скачивать файлы