BitTorrentTracker PerecTracker.org
BitTorrentTracker PerecTracker.org
    
Регистрация  ·  Вход
 
 · 
Забыли пароль?

  • Викинги / Vikings (Сезон 4, Серия 1-10 из 20) (Йохан Ренк, Киаран Доннелли) [2016 , Исторический, драма, приключения, боевик, викинги , WEB-DLRip 1080p] [AlexFilm , LostFilm , OMSKBIRD , NewStudio , BaibaKo] + [Subs Rus , Eng]

    Ответить на тему
     
    Автор Сообщение

    Враг Нароода

    Создавать темы 25-Фев-2016 10:12

           

    [Цитировать]

    ----Викинги / Vikings Сезон 4, Серия 1-10 из 20------Год выпуска: 2016
    Выпущено: Ирландия, Канада, Irish Film Board, Shaw Media, Take 5 Productions, World 2000 Entertainment
    Жанр: Историческая драма, приключения, боевик, викинги
    Продолжительность: 00:44:00
    Сезон:4
    Серия: 1-10
    Количество серий в сезоне: 20
    Озвучка 1: Профессиональный многоголосый - AlexFilm -Русский
    Озвучка 2: Профессиональный многоголосый - LostFilm -Русский
    Озвучка 3: Профессиональный многоголосый -OMSKBIRD -Русский
    Озвучка 4: Профессиональный многоголосый - NewStudio -Русский
    Озвучка 5: Профессиональный многоголосый - BaibaKo -Русский
    Озвучка 6: Профессиональный многоголосый - Английский - Оригинал
    Субтитры: : Русские,Английские -- В релизе отсутствует реклама --Официальный сайт
    --Режиссер: Йохан Ренк, Киаран Доннелли, Кен Джиротти , Джефф Вулнаф--Сценаристы::Майкл Херст--В ролях: Трэвис Фиммел, Кэтрин Уинник, Клайв Стэнден, Джессалин Гилсиг, Густаф Скарсгард, Джордж Благден, Донал Лог, Гэбриэл Бирн--Исторический сериал «Викинги» от создателя «Тюдоров» и продюсера «Камелота» и «Борджиа» Майкла Херста расскажет о путешествиях легендарного героя скандинавских саг Рагнара Лодброка, а также о превращении молодого викинга в мудрого правителя, которого сравнивали с самим богом войны Одином. Проект канала History может похвастаться яркими персонажами, красивыми натурными съемками и эпичными батальными сценами.

    Сюжет:Молодой фермер Рагнар Лодброк (Трэвис Фиммел), мечтающий о походе на Запад, выступает против воли местного правителя викингов, предпочитающего безопасные набеги на бедные соседние земли. Заручившись поддержкой своей семьи, герой принимает решение ослушаться приказа, тем самым разделив своих сородичей на два противоборствующих лагеря. С помощью искусного мастера Рагнар берется за строительство быстроходного корабля. С отрядом преданных бойцов викинг готов совершить нападение на сулящие несметные богатства земли англосаксов. Его легендарное путешествие в Британию будет воспето в мифах и преданиях…----Качество :WEB-DLRip-AVC 1080p
    Формат: MKV
    Видео кодек: H264
    Видео: 6542Кбит/сек,1920х1080(16.9),в 25.000кадр/сек,AVC(PAL)(High@L4)(CABAC/3 Ref Frames)
    Аудио Кодек:AC3
    Аудио #1:AC3 , 384 Kbps, 48.0 KHz, 6 ch- AlexFilm -Русский
    Аудио #2:AC3 , 384 Kbps, 48.0 KHz, 6 ch- LostFilm -Русский
    Аудио #3:AC3 , 384 Kbps, 48.0 KHz, 6 ch- -OMSKBIRD -Русский
    Аудио #4:AC3 , 384Kbps, 48.0 KHz, 6 ch- NewStudio -Русский
    Аудио #5:AC3 , 384 Kbps, 48.0 KHz, 6 ch- BaibaKo -Русский
    Аудио #6: AC3, 384 Kbps, 48.0 KHz,6 ch - - English - Оригинал--

    Доп. информация:

    Звуковая дорожка сделана путем наложения чистого голоса озвучивателей на центральный канал оригинальной дорожки. Качество идентично звуковой дорожке.
    --

    Список эпизодов сезона

    01 Удачная измена (A Good Treason)
    02 Убейте королеву! (Kill the Queen)
    03 Милосердие (Mercy)
    04 Йоль (Yol)
    05 Обещанное (Promised)
    06 Как могло бы быть (What Might Have Been)
    07 Победы и утраты (The Profit and the Loss)
    08 Сухопутный переход (Portage)
    09 Смерть кругом (Death All 'Round)
    10 Последний драккар (The Last Ship)
    --

    MediaInfo сезона

    Общее
    Уникальный идентификатор : 250886051285429643175452591222432758816 (0xBCBEE55863BC022EAF76480B0FCC7C20)
    Полное имя : E:\К ИНО\ИСТОРИЧЕСКИЕ\ВИКИНГИ\VIKINGS_2016_S04_[AlexFilm_LostFilm_OMSKBIRD_NewStudio_BaibaKo]_DD5.1_N.B_WEB-DL_1080_Rus_Eng\VIKINGS_S04E01_Н264_DD5.1_N.B_WEB-DL_1080p_5xRus_Eng (1)-004.mkv
    Формат : Matroska
    Версия формата : Version 4 / Version 2
    Размер файла : 353 Мбайт
    Продолжительность : 5 м. 36 с.
    Режим общего битрейта : Переменный
    Общий поток : 8791 Кбит/сек
    Название фильма : VIKINGS_S04E01_Н264_DD5.1_N.B_WEB-DL_1080p_5xRus_Eng
    Дата кодирования : UTC 2016-02-24 14:51:28
    Программа кодирования : mkvmerge v8.9.0 ('Father Daughter') 64bit
    Библиотека кодирования : libebml v1.3.3 + libmatroska v1.4.4
    Видео
    Идентификатор : 1
    Формат : AVC
    Формат/Информация : Advanced Video Codec
    Профиль формата : High@L4
    Параметр CABAC формата : Да
    Параметр ReFrames формата : 3 кадра
    Идентификатор кодека : V_MPEG4/ISO/AVC
    Продолжительность : 5 м. 36 с.
    Вид битрейта : Переменный
    Битрейт : 6542 Кбит/сек
    Ширина : 1920 пикселей
    Высота : 1080 пикселей
    Соотношение сторон : 16:9
    Режим частоты кадров : Постоянный
    Частота кадров : 25,000 кадров/сек
    Стандарт вещания : PAL
    Цветовое пространство : YUV
    Субдискретизация насыщенности : 4:2:0
    Битовая глубина : 8 бит
    Тип развёртки : Прогрессивная
    Бит/(Пиксели*Кадры) : 0.126
    Размер потока : 260 Мбайт (74%)
    Язык : English
    Default : Да
    Forced : Нет
    Цветовой диапазон : Full
    Основные цвета : BT.709
    Характеристики трансфера : BT.709
    Коэффициенты матрицы : BT.709
    Аудио #1
    Идентификатор : 4
    Формат : AC-3
    Формат/Информация : Audio Coding 3
    Расширение режима : CM (complete main)
    Параметр Endianness формата : Big
    Идентификатор кодека : A_AC3
    Продолжительность : 5 м. 36 с.
    Вид битрейта : Постоянный
    Битрейт : 384 Кбит/сек
    Каналы : 6 каналов
    Расположение каналов : Front: L C R, Side: L R, LFE
    Частота : 48,0 КГц
    Частота кадров : 31,250 кадров/сек (1536 spf)
    Метод сжатия : С потерями
    Задержка видео : 16 мс.
    Размер потока : 15,4 Мбайт (4%)
    Заголовок : AlexFilm 5.1
    Язык : Russian
    Default : Да
    Forced : Нет
    Аудио #2
    Идентификатор : 5
    Формат : AC-3
    Формат/Информация : Audio Coding 3
    Расширение режима : CM (complete main)
    Параметр Endianness формата : Big
    Идентификатор кодека : A_AC3
    Продолжительность : 5 м. 36 с.
    Вид битрейта : Постоянный
    Битрейт : 384 Кбит/сек
    Каналы : 6 каналов
    Расположение каналов : Front: L C R, Side: L R, LFE
    Частота : 48,0 КГц
    Частота кадров : 31,250 кадров/сек (1536 spf)
    Метод сжатия : С потерями
    Задержка видео : 16 мс.
    Размер потока : 15,4 Мбайт (4%)
    Заголовок : LostFilm 5.1
    Язык : Russian
    Default : Нет
    Forced : Нет
    Аудио #3
    Идентификатор : 6
    Формат : AC-3
    Формат/Информация : Audio Coding 3
    Расширение режима : CM (complete main)
    Параметр Endianness формата : Big
    Идентификатор кодека : A_AC3
    Продолжительность : 5 м. 36 с.
    Вид битрейта : Постоянный
    Битрейт : 384 Кбит/сек
    Каналы : 6 каналов
    Расположение каналов : Front: L C R, Side: L R, LFE
    Частота : 48,0 КГц
    Частота кадров : 31,250 кадров/сек (1536 spf)
    Метод сжатия : С потерями
    Задержка видео : 16 мс.
    Размер потока : 15,4 Мбайт (4%)
    Заголовок : OmskBird 5.1
    Язык : Russian
    Default : Нет
    Forced : Нет
    Аудио #4
    Идентификатор : 7
    Формат : AC-3
    Формат/Информация : Audio Coding 3
    Расширение режима : CM (complete main)
    Параметр Endianness формата : Big
    Идентификатор кодека : A_AC3
    Продолжительность : 5 м. 36 с.
    Вид битрейта : Постоянный
    Битрейт : 384 Кбит/сек
    Каналы : 6 каналов
    Расположение каналов : Front: L C R, Side: L R, LFE
    Частота : 48,0 КГц
    Частота кадров : 31,250 кадров/сек (1536 spf)
    Метод сжатия : С потерями
    Задержка видео : 16 мс.
    Размер потока : 15,4 Мбайт (4%)
    Заголовок : NewStudio 5.1
    Язык : Russian
    Default : Нет
    Forced : Нет
    Аудио #5
    Идентификатор : 8
    Формат : AC-3
    Формат/Информация : Audio Coding 3
    Расширение режима : CM (complete main)
    Параметр Endianness формата : Big
    Идентификатор кодека : A_AC3
    Продолжительность : 5 м. 36 с.
    Вид битрейта : Постоянный
    Битрейт : 384 Кбит/сек
    Каналы : 6 каналов
    Расположение каналов : Front: L C R, Side: L R, LFE
    Частота : 48,0 КГц
    Частота кадров : 31,250 кадров/сек (1536 spf)
    Метод сжатия : С потерями
    Задержка видео : 16 мс.
    Размер потока : 15,4 Мбайт (4%)
    Заголовок : BaibaKo 5.1
    Язык : Russian
    Default : Нет
    Forced : Нет
    Аудио #6
    Идентификатор : 9
    Формат : AC-3
    Формат/Информация : Audio Coding 3
    Расширение режима : CM (complete main)
    Параметр Endianness формата : Big
    Идентификатор кодека : A_AC3
    Продолжительность : 5 м. 36 с.
    Вид битрейта : Постоянный
    Битрейт : 384 Кбит/сек
    Каналы : 6 каналов
    Расположение каналов : Front: L C R, Side: L R, LFE
    Частота : 48,0 КГц
    Частота кадров : 31,250 кадров/сек (1536 spf)
    Метод сжатия : С потерями
    Задержка видео : 16 мс.
    Размер потока : 15,4 Мбайт (4%)
    Заголовок : original 5.1
    Язык : English
    Default : Нет
    Forced : Нет
    Текст #1
    Идентификатор : 2
    Формат : UTF-8
    Идентификатор кодека : S_TEXT/UTF8
    Идентификатор кодека/Информация : UTF-8 Plain Text
    Продолжительность : 5 м. 33 с.
    Битрейт : 81 бит/сек
    Count of elements : 80
    Размер потока : 3,33 Кбайт (0%)
    Заголовок : rus (OmskBird)
    Язык : Russian
    Default : Нет
    Forced : Нет
    Текст #2
    Идентификатор : 3
    Формат : UTF-8
    Идентификатор кодека : S_TEXT/UTF8
    Идентификатор кодека/Информация : UTF-8 Plain Text
    Продолжительность : 5 м. 33 с.
    Битрейт : 58 бит/сек
    Count of elements : 91
    Размер потока : 2,40 Кбайт (0%)
    Заголовок : CC
    Язык : English
    Default : Нет
    Forced : Нет
    --

    Скриншоты

    ----Внимание! Раздача пополняется по мере выхода новых серий!--

    Внимание! Раздача ведётся путём добавления новых серий!

    Раздача ведётся путём добавления новых серий; при каждом добавлении создётся новый торрент.
    Чтобы начать докачку новой серии, пользователям необходимо сделать следующее:
    1. остановить скачивание,
    2. удалить старый торрент у себя из клиента (старые серии удалять не надо),
    3. скачать новый торрент и запустить его у себя в клиенте вместо старого, при этом указать клиенту путь в старую папку, куда и должно происходить скачивание новых серий.
    Ваш клиент при этом должен произвести хеширование (проверку) старой папки (если не производит сам - помогите ему сделать это), и будет докачивать только те серии которых у вас ещё нет. Старые серии при этом не удаляются, а продолжают раздаваться!
    Eсли вы уже удалили старые серии, то предотвратить повторную закачку старых серий можно, отжав галочку в соответсвующих местах при запуске нового торрента. По возможности, желательно не удалять старые серии как можно дольше, чтобы релизёр не столько продолжал раздавать старые серии, а смог сконцентрироваться на новых.
    Совет для тех, кто не хочет ждать перехеширования:
    Создайте ещё одну папку рядом с папкой сериала (рядом, а не в ней!!!). Каждую новую серию после удачной загрузки копируйте в новую папку так чтобы ваша основная папка всегда была пуста. Когда ваш новый торрент предложит вам закачать все файлы, выберете только последнюю. Для сидирования же укажите адрес новой папки.
    Как закачать отдельный файл из торрента или докачать ранее пропущенные файлы торрента!

    Как закачать отдельный файл

    1. Открыть торрент
    2. Снять галки с тех файлов торрента, которые мы не хотим закачивать. Оставляем только на нужных нам файлах (файле).
    3. Нажать О.К.
    В клиенте utorrent
    Инструкция
    1) Открыть торрент

    2) Снять галки с тех файлов торрента, которые мы не хотим закачивать:
    * либо вручную, снимая с каждого файла галку( скрин №1)
    * либо, нажав кнопку "Снять метки (Select None)", сняв сразу со всех файлов(скрин №2)
    №1

    №2

    Оставляем только на нужных нам файлах (файле).

    3)Нажать О.К
    ------Внимание!!! 26.04. 2016. РАЗДАЧА ОБНОВЛЕНА. ОБНОВИТЕ ТОРЕНТ ФАЙЛ.ПРИЯТНОГО ПРОСМОТРА . --Релиз от: Nikolai.Baranov & PIRATIYA --------
    Скачать .torrent

    Скачать торрент-файл бесплатно и на максимальной скорости!

    Как скачивать? · Что такое торрент? · Рейтинг и ограничения

    !ВНИМАНИЕ!
    Сайт не распространяет и не хранит электронные версии произведений, а занимается лишь лишь предоставлением доступа к создаваемому пользователями каталогу ссылок на торрент-файлы, которые содержат только списки хеш-сумм, убедительная просьба с жалобами обращаться напрямую к пользователю. Файлы для обмена на трекере предоставлены пользователями сайта, и администрация не несёт ответственности за их содержание. Просьба не заливать файлы, защищенные авторскими правами, а также файлы нелегального содержания!


    _________________

    Легко быть оптимистом, когда судьба не валит с ног тяжелыми ударами, а лишь иногда легонько шлепает по заднице.


    Последний раз редактировалось: Враг Нароода (2016-04-26 09:51), всего редактировалось 9 раз(а)
    [Профиль] [ЛС]

    -746

    Создавать темы 06-Мар-2016 13:40 (спустя 10 дней)

           

    Топик был перенесен из форума Зарубежные сериалы в форум Зарубежные сериалы (HD Video)


    -sasha2006

    _________________
    Как бы ты высоко не летал, не забывай, с кем ты ползал..
     
    Показать сообщения:    
    Ответить на тему

    Текущее время: Сегодня, в 23:20

    Часовой пояс: GMT + 2



    Вы не можете начинать темы
    Вы не можете отвечать на сообщения
    Вы не можете редактировать свои сообщения
    Вы не можете удалять свои сообщения
    Вы не можете голосовать в опросах
    Вы не можете прикреплять файлы к сообщениям
    Вы не можете скачивать файлы