BitTorrentTracker PerecTracker.org
BitTorrentTracker PerecTracker.org
    
Регистрация  ·  Вход
 
 · 
Забыли пароль?

  • Повелитель мух / Lord of the Flies (Гарри Хук / Harry Hook) [1990, США, драма, приключения, BDRemux 1080p] MVO + DVO (SDI Media) + AVO (Михалев) + Sub Eng + Original Eng

    Ответить на тему
     
    Автор Сообщение

    Flirldrerve

    Создавать темы 25-Фев-2016 00:17

           

    [Цитировать]

    Повелитель мух / Lord of the Flies
    Страна: США
    Студия: Castle Rock Entertainment, Nelson Entertainment и др.
    Жанр: драма, приключения
    Год выпуска: 1990
    Продолжительность: 01:30:20
    Перевод: Профессиональный (многоголосый закадровый)
    Перевод 2: Профессиональный (двухголосый закадровый) SDI Media
    Перевод 3: Авторский (одноголосый закадровый) А. Михалев
    Cубтитры: английские
    Оригинальная аудиодорожка: английский
    Режиссер: Гарри Хук / Harry Hook
    В ролях: Бальтазар Гетти, Крис Фур, Даниел Пиполи, Джеймс Бэдж Дэйл, Эндрю Тафт, Эдвард Тафт, Гари Рул, Терри Уэллс, Браден Макдональд, Энгус Баргин
    Описание: Экранизация романа Уильяма Голдинга.
    Группа юных курсантов военной школы чудом спасаются после катастрофы перевозившего их самолета. Вместе с пилотом они оказываются на пустынном острове совершенно одни. Помощи ждать неоткуда и надо осваиваться в необычных условиях. Кто-то хочет во всем походить на взрослых. А кому-то милей мальчишеские игры и забавы в самом жестоком и кровавом варианте…


    Sample
    Тип релиза: BDRemux 1080p
    Контейнер: MKV
    Видео: MPEG4 AVC Video, H264, 16:9, 1920x1080, 23.976 fps, 30000 Kbps
    Аудио: Russian (AC3, 2 ch, 192 kbps, 16 bits, 48.0 KHz) - MVO
    Аудио 2: Russian (AC3, 2 ch, 192 kbps, 16 bits, 48.0 KHz) - SDI Media
    Аудио 3: Russian (AC3, 2 ch, 192 kbps, 16 bits, 48.0 KHz) - А. Михалев
    Аудио 4: English (DTS-HD MA, 2 ch, 2081 kbps, 24 bits, 48.0 KHz / DTS core: 2 ch, 1509 kbps, 24 bits, 48.0 KHz) - оригинал
    Формат субтитров: softsub (SRT)

    MediaInfo

    General
    Unique ID : 174660746468546799050570340863292022756 (0x83666FA90D559B439720EF16D6511FE4)
    Complete name : E:\Lord of the Flies 1990 BDRemux 1080p.mkv
    Format : Matroska
    Format version : Version 4 / Version 2
    File size : 19.9 GiB
    Duration : 1h 30mn
    Overall bit rate mode : Variable
    Overall bit rate : 31.5 Mbps
    Encoded date : UTC 2016-02-22 12:50:48
    Writing application : mkvmerge v6.1.0 ('Old Devil') built on Mar 2 2013 14:32:37
    Writing library : libebml v1.3.0 + libmatroska v1.4.0
    Video
    ID : 1
    Format : AVC
    Format/Info : Advanced Video Codec
    Format profile : High@L4.1
    Format settings, CABAC : Yes
    Format settings, ReFrames : 4 frames
    Codec ID : V_MPEG4/ISO/AVC
    Duration : 1h 30mn
    Bit rate mode : Constant
    Nominal bit rate : 30.0 Mbps
    Width : 1 920 pixels
    Height : 1 080 pixels
    Display aspect ratio : 16:9
    Frame rate mode : Constant
    Frame rate : 23.976 fps
    Color space : YUV
    Chroma subsampling : 4:2:0
    Bit depth : 8 bits
    Scan type : Progressive
    Bits/(Pixel*Frame) : 0.603
    Language : English
    Default : Yes
    Forced : No
    Audio #1
    ID : 2
    Format : AC-3
    Format/Info : Audio Coding 3
    Mode extension : CM (complete main)
    Format settings, Endianness : Big
    Codec ID : A_AC3
    Duration : 1h 30mn
    Bit rate mode : Constant
    Bit rate : 192 Kbps
    Channel count : 2 channels
    Channel positions : Front: L R
    Sampling rate : 48.0 KHz
    Bit depth : 16 bits
    Compression mode : Lossy
    Stream size : 124 MiB (1%)
    Language : Russian
    Default : Yes
    Forced : No
    Audio #2
    ID : 3
    Format : AC-3
    Format/Info : Audio Coding 3
    Mode extension : CM (complete main)
    Format settings, Endianness : Big
    Codec ID : A_AC3
    Duration : 1h 30mn
    Bit rate mode : Constant
    Bit rate : 192 Kbps
    Channel count : 2 channels
    Channel positions : Front: L R
    Sampling rate : 48.0 KHz
    Bit depth : 16 bits
    Compression mode : Lossy
    Stream size : 124 MiB (1%)
    Title : SDI Media
    Language : Russian
    Default : No
    Forced : No
    Audio #3
    ID : 4
    Format : AC-3
    Format/Info : Audio Coding 3
    Mode extension : CM (complete main)
    Format settings, Endianness : Big
    Codec ID : A_AC3
    Duration : 1h 30mn
    Bit rate mode : Constant
    Bit rate : 192 Kbps
    Channel count : 2 channels
    Channel positions : Front: L R
    Sampling rate : 48.0 KHz
    Bit depth : 16 bits
    Compression mode : Lossy
    Stream size : 124 MiB (1%)
    Title : А. Михалев
    Language : Russian
    Default : No
    Forced : No
    Audio #4
    ID : 5
    Format : DTS
    Format/Info : Digital Theater Systems
    Format profile : MA / Core
    Mode : 16
    Format settings, Endianness : Big
    Codec ID : A_DTS
    Duration : 1h 30mn
    Bit rate mode : Variable
    Bit rate : Unknown / 1 509 Kbps
    Channel count : 2 channels
    Channel positions : Front: L R
    Sampling rate : 48.0 KHz
    Bit depth : 24 bits
    Compression mode : Lossless / Lossy
    Language : English
    Default : No
    Forced : No
    Text
    ID : 6
    Format : UTF-8
    Codec ID : S_TEXT/UTF8
    Codec ID/Info : UTF-8 Plain Text
    Language : English
    Default : No
    Forced : No

    Скриншоты

    Скачать .torrent

    Скачать торрент-файл бесплатно и на максимальной скорости!

    Как скачивать? · Что такое торрент? · Рейтинг и ограничения

    !ВНИМАНИЕ!
    Сайт не распространяет и не хранит электронные версии произведений, а занимается лишь лишь предоставлением доступа к создаваемому пользователями каталогу ссылок на торрент-файлы, которые содержат только списки хеш-сумм, убедительная просьба с жалобами обращаться напрямую к пользователю. Файлы для обмена на трекере предоставлены пользователями сайта, и администрация не несёт ответственности за их содержание. Просьба не заливать файлы, защищенные авторскими правами, а также файлы нелегального содержания!


    _________________
    [Профиль] [ЛС]
    Показать сообщения:    
    Ответить на тему

    Текущее время: Сегодня, в 00:06

    Часовой пояс: GMT + 2



    Вы не можете начинать темы
    Вы не можете отвечать на сообщения
    Вы не можете редактировать свои сообщения
    Вы не можете удалять свои сообщения
    Вы не можете голосовать в опросах
    Вы не можете прикреплять файлы к сообщениям
    Вы не можете скачивать файлы