BitTorrentTracker PerecTracker.org
BitTorrentTracker PerecTracker.org
    
Регистрация  ·  Вход
 
 · 
Забыли пароль?

  • Воины дракона / Dragon Warriors / Dudes & Dragons (Маклейн Нельсон / Maclain Nelson, Стивен Шимек / Stephen Shimek) [2015, США, фэнтези, боевик, комедия, SATRip] MVO

    Ответить на тему
     
    Автор Сообщение

    rechyn

    Создавать темы 25-Фев-2016 00:17

           

    [Цитировать]

    Воины дракона / Dragon Warriors / Dudes & Dragons
    Страна: США
    Жанр: фэнтези, боевик, комедия
    Год выпуска: 2015
    Продолжительность: 01:43:02
    Перевод: Профессиональный (многоголосый закадровый)
    Cубтитры: нет
    Оригинальная аудиодорожка: нет
    Режиссер: Маклейн Нельсон / Maclain Nelson, Стивен Шимек / Stephen Shimek
    В ролях: Джеймс Марстерс
    Кэйтлин Даблдэй
    Люк Перри
    Адам Джонсон
    Маклейн Нельсон
    Клэр Нидерпрюэм
    Джейк Ван Вагонер
    Эрик Дентон
    Шеннон Энгеманн
    Лорин Кент
    Описание:
    Злой волшебник, лорд Тенсли, добивается руки и сердца прекрасной принцессы, леди Энногард. Она отказывается, он похищает ее и натравливает дракона на земли королевства. Злодей клянется, что, пока принцесса не согласится, дракон будет уничтожать всех, чьи сердца открыты для любви. Узница посылает волшебную стрекозу, чтобы та нашла воина, способного сразить дракона и освободить землю от опасности. Тем временем молодой воин по имени Камилан мечтает жениться на своей возлюбленной, принцессе эльфов. Родители не дают ему благословения на брак, пока не женится его старший брат Рамикус, уже давно покинувший дом изгой. Камилан пускается на поиски брата, чтобы вместе с ним сразить дракона, освободив тем самым леди Энногард, красота которой не может не тронуть ожесточенное сердце Рамикуса. Вскоре герои вместе со своими верными оруженосцами отправляются в путешествие, в финале которого им предстоит положить конец правлению тирана Тенсли…
    Сэмпл: http://multi-up.com/1090313
    Качество видео: SATRip
    Формат видео: AVI
    Видео: MPEG4, XviD, 720x400 (16:9), 25.000 fps, 1 816 Kbps (0.252 bit/pixel)
    Аудио: AC-3, 48.0 KHz, 2 ch, 192 Kbps, CBR

    MediaInfo

    Общее
    Полное имя : N:\Воины дракона.avi
    Формат : AVI
    Формат/Информация : Audio Video Interleave
    Размер файла : 1,45 Гбайт
    Продолжительность : 1 ч. 43 м.
    Общий поток : 2018 Кбит/сек
    Название фильма : Воины дракона / Dragon Warriors / Dudes & Dragons (2015)
    Программа кодирования : VirtualDubMod 1.5.10.2 (build 2540/release)
    Библиотека кодирования : VirtualDubMod build 2540/release
    Авторское право : miha2154
    Видео
    Идентификатор : 0
    Формат : MPEG-4 Visual
    Профиль формата : Advanced Simple@L5
    Параметр BVOP формата : 1
    Параметр QPel формата : Нет
    Параметр GMC формата : Без точки перехода
    Параметр матрицы формата : Выборочная
    Идентификатор кодека : XVID
    Идентификатор кодека/Подсказка : XviD
    Продолжительность : 1 ч. 43 м.
    Битрейт : 1816 Кбит/сек
    Ширина : 720 пикселей
    Высота : 400 пикселей
    Соотношение сторон : 16:9
    Частота кадров : 25,000 кадров/сек
    Цветовое пространство : YUV
    Субдискретизация насыщенности : 4:2:0
    Битовая глубина : 8 бит
    Тип развёртки : Прогрессивная
    Метод сжатия : С потерями
    Бит/(Пиксели*Кадры) : 0.252
    Размер потока : 1,31 Гбайт (90%)
    Библиотека кодирования : XviD 65
    Аудио
    Идентификатор : 1
    Формат : AC-3
    Формат/Информация : Audio Coding 3
    Расширение режима : CM (complete main)
    Параметр Endianness формата : Big
    Идентификатор кодека : 2000
    Продолжительность : 1 ч. 43 м.
    Вид битрейта : Постоянный
    Битрейт : 192 Кбит/сек
    Каналы : 2 канала
    Расположение каналов : Front: L R
    Частота : 48,0 КГц
    Частота кадров : 31,250 кадров/сек (1536 spf)
    Метод сжатия : С потерями
    Размер потока : 141 Мбайт (10%)
    Выравнивание : Разделение по промежуткам
    Продолжительность промежутка : 40 мс. (1,00 видеокадр)
    Время предзагрузки промежутка : 500 мс.
    Заголовок : Профессиональный (многоголосый закадровый)

    Скриншот c названием фильма

    Скриншоты


    Скачать .torrent

    Скачать торрент-файл бесплатно и на максимальной скорости!

    Как скачивать? · Что такое торрент? · Рейтинг и ограничения

    !ВНИМАНИЕ!
    Сайт не распространяет и не хранит электронные версии произведений, а занимается лишь лишь предоставлением доступа к создаваемому пользователями каталогу ссылок на торрент-файлы, которые содержат только списки хеш-сумм, убедительная просьба с жалобами обращаться напрямую к пользователю. Файлы для обмена на трекере предоставлены пользователями сайта, и администрация не несёт ответственности за их содержание. Просьба не заливать файлы, защищенные авторскими правами, а также файлы нелегального содержания!


    _________________
    [Профиль] [ЛС]
    Показать сообщения:    
    Ответить на тему

    Текущее время: Сегодня, в 16:32

    Часовой пояс: GMT + 2



    Вы не можете начинать темы
    Вы не можете отвечать на сообщения
    Вы не можете редактировать свои сообщения
    Вы не можете удалять свои сообщения
    Вы не можете голосовать в опросах
    Вы не можете прикреплять файлы к сообщениям
    Вы не можете скачивать файлы