Register  ·  Log in
Forgot password?

  • Отвергнутая / Forsaken (Джастин Прайс / Justin Price) [2016, США, ужасы, HDRip] VO (Васька Куролесов)

    Reply to topic
    Author Message


    Post 24-Feb-2016 12:41



    Отвергнутая / Forsaken
    Страна: США
    Жанр: ужасы
    Год выпуска: 2016
    Продолжительность: 01:29:22
    Перевод: Одноголосый закадровый Васька Куролесов по субтитрам Enigma
    Cубтитры: нет
    Оригинальная аудиодорожка: нет
    Режиссер: Джастин Прайс / Justin Price
    В ролях: Мишель Каталано, Давид Казарес, Тони Гомез, Мишель Соза
    Описание: Когда Священник обнаруживает, что его жена смертельно больна, он решается пойти против своей веры и использовать знания об изгнании нечистой силы, чтобы спасти ей жизнь.
    Качество видео: HDRip
    Формат видео: AVI
    Видео: XviD, 1796 Кбит/с, 720x304, 23.976 fps
    Аудио: AC3, 2 ch, 192 Кбит/с, 48.0 KHz


    Complete name : G:\Forsaken.2016.HDRip_KypoJIecoB.avi
    Format : AVI
    Format/Info : Audio Video Interleave
    File size : 1.25 GiB
    Duration : 1h 29mn
    Overall bit rate : 1 997 Kbps
    ID : 0
    Format : MPEG-4 Visual
    Format profile : Advanced Simple@L5
    Format settings, BVOP : 2
    Format settings, QPel : No
    Format settings, GMC : No warppoints
    Format settings, Matrix : Default (H.263)
    Codec ID : XVID
    Codec ID/Hint : XviD
    Duration : 1h 29mn
    Bit rate : 1 796 Kbps
    Width : 720 pixels
    Height : 304 pixels
    Display aspect ratio : 2.35:1
    Frame rate : 23.976 fps
    Color space : YUV
    Chroma subsampling : 4:2:0
    Bit depth : 8 bits
    Scan type : Progressive
    Compression mode : Lossy
    Bits/(Pixel*Frame) : 0.342
    Stream size : 1.12 GiB (90%)
    Writing library : XviD 66
    ID : 1
    Format : AC-3
    Format/Info : Audio Coding 3
    Mode extension : CM (complete main)
    Format settings, Endianness : Big
    Codec ID : 2000
    Duration : 1h 29mn
    Bit rate mode : Constant
    Bit rate : 192 Kbps
    Channel(s) : 2 channels
    Channel positions : Front: L R
    Sampling rate : 48.0 KHz
    Compression mode : Lossy
    Stream size : 123 MiB (10%)
    Alignment : Split accross interleaves
    Interleave, duration : 42 ms (1.00 video frame)
    Interleave, preload duratio : 500 ms

    Скриншот c названием фильма


    Download .torrent

    Download free and at maximum speed!

    How to Download? · What is a torrent? · Ratings and Limitations

    The site does not extend and does not store electronic(digital) versions of products, and only gives access to a reference catalogue created by users on torrent-files which contain only lists of the hash-sums, the earnest entreaty, with complaints(abuse) to access directly to the user. Files for an exchange on tracker are given by users of a site, and the administration does not bear the responsibility for their maintenance. The request to not fill in the files protected by copyrights, and also files of the illegal maintenance!

    [Profile] [PM]
    Display posts from previous:    
    Reply to topic

    The time now is: Today 19:46

    All times are GMT + 3 Hours

    You cannot post new topics in this forum
    You cannot reply to topics in this forum
    You cannot edit your posts in this forum
    You cannot delete your posts in this forum
    You cannot vote in polls in this forum
    You cannot attach files in this forum
    You cannot download files in this forum