BitTorrentTracker PerecTracker.org
BitTorrentTracker PerecTracker.org
    
Регистрация  ·  Вход
 
 · 
Забыли пароль?

  • Ёлки 2 (Дмитрий Киселёв) [2011, Мелодрама, комедия, семейный, BDRip]

    Ответить на тему
     
    Автор Сообщение

    rechyn

    Создавать темы 24-Фев-2016 11:41

           

    [Цитировать]

    Ёлки 2
    «Идём на сближение»
    -Год выпуска: 2011
    Выпущено: Россия / Базелевс Продакшн
    Жанр: мелодрама, комедия, семейный
    Продолжительность: 01:40:19-Режиссёры:
    Дмитрий Киселёв, Александр Баранов, Александр Котт, Леван Габриадзе-В ролях:
    Иван Ургант (Боря), Сергей Светлаков (Женя), Алексей Петренко (Григорий Павлович Земляникин), Ирина Алфёрова (Юлия Снегирева), Пётр Фёдоров (Николай, папа Насти), Сергей Безруков (капитан полиции Ветров), Владимир Меньшов (деда Валера), Виктор Вержбицкий (депутат Воробьёв), Вера Брежнева (играет саму себя), Никита Пресняков (Павел Бондарев), Александр Головин (Димон Фоменко), Алёна Константинова (Алёна), Тимур Орцуев (Аслан), Анна Чиповская (Лена, мама Насти), Павел Баршак (молодой пилот), Гоша Куценко (профессор / Дракон)-Описание:
    Незадолго до Нового года Боря теряет память, и единственной зацепкой, которая может помочь, является надпись «З. Г.», которую он обнаруживает на руке. В это же время капитан полиции пытается решить проблемы личного характера и разлучить родную дочь и ее молодого человека, два экстремала и их любимая бабушка из подъезда снова готовятся к членовредительским подвигам, а Вера Брежнева опять сводит с ума сильную половину человечества, а конкретно — рядового Бондарева, бывшего таксиста.-Релиз групп
    | | КиноПоиск | Сэмпл |-Качество: BDRip [Blu-ray Disc]
    Формат: AVI
    Видео: 704x400 (1.76:1), 23.976 fps, XviD build 67 ~1622 kbps avg, 0.24 bit/pixel
    Аудио: 48 kHz, AC3 Dolby Digital, 3/2 (L,C,R,l,r) + LFE ch, ~448 kbps avg-

    Скриншоты

    -

    MediaInfo

    General
    Complete name                            : D:\Elki_2_2011_BDRip_by_Dalemake.avi
    Format                                   : AVI
    Format/Info                              : Audio Video Interleave
    File size                                : 1.46 GiB
    Duration                                 : 1h 40mn
    Overall bit rate                         : 2 080 Kbps
    Writing application                      : VirtualDubMod 1.5.10.3 | www.virtualdub-fr.org || (build 2550/release)
    Writing library                          : VirtualDubMod build 2550/release
    Video
    ID                                       : 0
    Format                                   : MPEG-4 Visual
    Format profile                           : Advanced Simple@L5
    Format settings, BVOP                    : 1
    Format settings, QPel                    : No
    Format settings, GMC                     : No warppoints
    Format settings, Matrix                  : Custom
    Codec ID                                 : XVID
    Codec ID/Hint                            : XviD
    Duration                                 : 1h 40mn
    Bit rate                                 : 1 622 Kbps
    Width                                    : 704 pixels
    Height                                   : 400 pixels
    Display aspect ratio                     : 16:9
    Frame rate                               : 23.976 (24000/1001) fps
    Color space                              : YUV
    Chroma subsampling                       : 4:2:0
    Bit depth                                : 8 bits
    Scan type                                : Progressive
    Compression mode                         : Lossy
    Bits/(Pixel*Frame)                       : 0.240
    Stream size                              : 1.14 GiB (78%)
    Writing library                          : XviD 67
    Audio
    ID                                       : 1
    Format                                   : AC-3
    Format/Info                              : Audio Coding 3
    Mode extension                           : CM (complete main)
    Format settings, Endianness              : Big
    Codec ID                                 : 2000
    Duration                                 : 1h 40mn
    Bit rate mode                            : Constant
    Bit rate                                 : 448 Kbps
    Channel(s)                               : 6 channels
    Channel positions                        : Front: L C R, Side: L R, LFE
    Sampling rate                            : 48.0 KHz
    Frame rate                               : 31.250 fps (1536 spf)
    Compression mode                         : Lossy
    Stream size                              : 321 MiB (22%)
    Alignment                                : Split accross interleaves
    Interleave, duration                     : 42 ms (1.00 video frame)
    Interleave, preload duration             : 500 ms
    -
    Скачать .torrent

    Скачать торрент-файл бесплатно и на максимальной скорости!

    Как скачивать? · Что такое торрент? · Рейтинг и ограничения

    !ВНИМАНИЕ!
    Сайт не распространяет и не хранит электронные версии произведений, а занимается лишь лишь предоставлением доступа к создаваемому пользователями каталогу ссылок на торрент-файлы, которые содержат только списки хеш-сумм, убедительная просьба с жалобами обращаться напрямую к пользователю. Файлы для обмена на трекере предоставлены пользователями сайта, и администрация не несёт ответственности за их содержание. Просьба не заливать файлы, защищенные авторскими правами, а также файлы нелегального содержания!


    _________________
    [Профиль] [ЛС]
    Показать сообщения:    
    Ответить на тему

    Текущее время: Сегодня, в 00:23

    Часовой пояс: GMT + 2



    Вы не можете начинать темы
    Вы не можете отвечать на сообщения
    Вы не можете редактировать свои сообщения
    Вы не можете удалять свои сообщения
    Вы не можете голосовать в опросах
    Вы не можете прикреплять файлы к сообщениям
    Вы не можете скачивать файлы