BitTorrentTracker PerecTracker.org
BitTorrentTracker PerecTracker.org
    
Регистрация  ·  Вход
 
 · 
Забыли пароль?

  • Ёлки 3 (Ольга Харина) [2013, Семейный, комедия, BDRip]

    Ответить на тему
     
    Автор Сообщение

    rechyn

    Создавать темы 24-Фев-2016 11:41

           

    [Цитировать]

    Ёлки 3
    «Вместе теплее»
    -Год выпуска: 2013
    Выпущено: Россия / Базелевс Продакшн
    Жанр: семейный, комедия
    Продолжительность: 01:36:50-Режиссёры:
    Ольга Харина, Дмитрий Киселёв, Александр Котт, Александр Карпиловский, Леван Габриадзе, Антон Мегердичев, Екатерина Телегина, Заур Засеев-В ролях:
    Иван Ургант (Боря), Сергей Светлаков (Женя), Гоша Куценко (Андрей), Валентин Гафт (Николай Петрович), Татьяна Догилева (Марта Петровна), Пётр Фёдоров (Коля), Анна Чиповская (Лена), Мария Шукшина (Наташа), Константин Хабенский (рассказчик), Антон Богданов (Денис), Мария Луговая (Маша), Александр Головин (Александр Головин), Александр Домогаров мл. (лыжник), Анна Хилькевич (внучка бабы Мани), Александр Робак (Коровин), Александр Ильин (военком), Лера Стреляева (Настя)-Описание:
    Спустя два года они снова с нами: любимые герои «Ёлок» в самых невероятных новогодних историях. Боря и Женя, чьи годовалые дети в канун праздника доведут друзей до психушки. Маленькая девочка Настя, чьи родители разлучат ее влюбленных друг в друга собак. Лыжник и сноубордист в самой экстремальной в их жизни гонке — от военкома. И профессор из Екатеринбурга Андрей, чья любвеобильность вновь не доведет его до добра, а только до проруби в минус 30.
    Под бой курантов этих и новых героев «Ёлок» объединит бумеранг добра. Завершая свой круг, он заслуженно вернётся к каждому, кто его однажды запустил — кому улыбками и объятиями любимых и друзей, кому — праздничным настроением и соответствующим градусу состоянием, а кому-то… телефоном в холодце!-Релиз групп
    | | КиноПоиск | Сэмпл |-Качество: BDRip [Blu-ray Disc]
    Формат: AVI
    Видео: 720x304 (2.37:1), 24.000 fps, XviD build 67 ~1696 kbps avg, 0.32 bit/pixel
    Аудио: 48 kHz, AC3 Dolby Digital, 3/2 (L,C,R,l,r) + LFE ch, ~448 kbps avg-

    Скриншоты

    -

    MediaInfo

    General
    Complete name                            : D:\Elki_3_2013_BDRip_by_Dalemake.avi
    Format                                   : AVI
    Format/Info                              : Audio Video Interleave
    File size                                : 1.46 GiB
    Duration                                 : 1h 36mn
    Overall bit rate                         : 2 154 Kbps
    Writing application                      : VirtualDubMod 1.5.10.3 | www.virtualdub-fr.org || (build 2550/release)
    Writing library                          : VirtualDubMod build 2550/release
    Video
    ID                                       : 0
    Format                                   : MPEG-4 Visual
    Format profile                           : Advanced Simple@L5
    Format settings, BVOP                    : 1
    Format settings, QPel                    : No
    Format settings, GMC                     : No warppoints
    Format settings, Matrix                  : Custom
    Codec ID                                 : XVID
    Codec ID/Hint                            : XviD
    Duration                                 : 1h 36mn
    Bit rate                                 : 1 696 Kbps
    Width                                    : 720 pixels
    Height                                   : 304 pixels
    Display aspect ratio                     : 2.35:1
    Frame rate                               : 24.000 fps
    Color space                              : YUV
    Chroma subsampling                       : 4:2:0
    Bit depth                                : 8 bits
    Scan type                                : Progressive
    Compression mode                         : Lossy
    Bits/(Pixel*Frame)                       : 0.323
    Stream size                              : 1.15 GiB (79%)
    Writing library                          : XviD 67
    Audio
    ID                                       : 1
    Format                                   : AC-3
    Format/Info                              : Audio Coding 3
    Mode extension                           : CM (complete main)
    Format settings, Endianness              : Big
    Codec ID                                 : 2000
    Duration                                 : 1h 36mn
    Bit rate mode                            : Constant
    Bit rate                                 : 448 Kbps
    Channel(s)                               : 6 channels
    Channel positions                        : Front: L C R, Side: L R, LFE
    Sampling rate                            : 48.0 KHz
    Frame rate                               : 31.250 fps (1536 spf)
    Compression mode                         : Lossy
    Stream size                              : 310 MiB (21%)
    Alignment                                : Split accross interleaves
    Interleave, duration                     : 42 ms (1.00 video frame)
    Interleave, preload duration             : 500 ms
    -
    Скачать .torrent

    Скачать торрент-файл бесплатно и на максимальной скорости!

    Как скачивать? · Что такое торрент? · Рейтинг и ограничения

    !ВНИМАНИЕ!
    Сайт не распространяет и не хранит электронные версии произведений, а занимается лишь лишь предоставлением доступа к создаваемому пользователями каталогу ссылок на торрент-файлы, которые содержат только списки хеш-сумм, убедительная просьба с жалобами обращаться напрямую к пользователю. Файлы для обмена на трекере предоставлены пользователями сайта, и администрация не несёт ответственности за их содержание. Просьба не заливать файлы, защищенные авторскими правами, а также файлы нелегального содержания!


    _________________
    [Профиль] [ЛС]
    Показать сообщения:    
    Ответить на тему

    Текущее время: Сегодня, в 04:31

    Часовой пояс: GMT + 2



    Вы не можете начинать темы
    Вы не можете отвечать на сообщения
    Вы не можете редактировать свои сообщения
    Вы не можете удалять свои сообщения
    Вы не можете голосовать в опросах
    Вы не можете прикреплять файлы к сообщениям
    Вы не можете скачивать файлы